梦幻天堂·龙网

 找回密码
 立即注册
查看: 907|回复: 10

[1080p] 回复 [动作]地下6号.2019.1080p.NF.WEB.DDP5.1.Atmos.x264-AJP69 16.42 GB 英语简...

[复制链接]

6359

主题

8456

帖子

1万

积分

神界龙王

Rank: 30Rank: 30Rank: 30Rank: 30

积分
18078

龙网爱心勋章

发表于 2020-1-6 20:31:08 | 显示全部楼层 |阅读模式

导演: 迈克尔·贝
编剧: 保罗·韦尼克 / 瑞特·里斯
主演: 瑞恩·雷诺兹 / 本·哈迪 / 梅拉尼·罗兰 / 亚德里亚·霍纳 / 戴夫·弗兰科 / 科里·霍金斯 / 塞巴斯蒂安·罗奇 / 曼努埃尔·加西亚-鲁尔福 / 詹姆斯·莫瑞 / 利奥·拉兹 / 埃莱娜·卡多纳 / 佩曼·莫阿迪 / 尤里·科洛科利尼科夫 / 金·柯尔德 / 丹尼尔·阿德博伊加 / 詹姆斯·卡罗尔·乔丹 / 康斯坦丁·格雷戈里 / 彼得·阿佩塞拉 / 托多尔·乔丹诺夫 / 里纳特·希什马塔林 / 莉迪亚·佛朗哥 / 罗杰·内瓦雷斯 / 舒巴姆·沙拉夫
类型: 动作 / 惊悚
制片国家/地区: 美国
语言: 英语 / 土库曼语 / 粤语 / 意大利语 / 西班牙语 / 乌克兰语 / 法语
上映日期: 2019-12-13(美国)
片长: 127分钟
又名: 地下6号 / 六尺之下 / 飞天遁地 / Six Underground
IMDb链接: tt8106534


鬼影特攻:以暴制暴的剧情简介 · · · · · ·
  来自世界各地的六人,个个都是各自领域的佼佼者。他们之所以被选中,不单是因为能力出众,还在于其独特的志向:他们想抹杀自己的过去以改变未来。一位神秘的领袖(瑞恩·雷诺兹饰)将他们召集到一起组成了这个团队,他毕生唯一的使命就是确保即使他和自己的同伴会被遗忘,但也要让人们永远铭记他们所做的一切。


鬼影特攻:以暴制暴 6 Underground 获奖情况
第7届美国化妆及发型设计工会奖  (2020)
电视电影/特别节目类最佳年代戏发型设计(提名)
电视电影/特别节目类最佳特效化妆(提名)



Video
ID : 1
Format : AVC
Format/Info : Advanced Video Codec
Format profile : High@L4.1
Format settings : CABAC / 5 Ref Frames
Format settings, CABAC : Yes
Format settings, Reference frames : 5 frames
Codec ID : V_MPEG4/ISO/AVC
Duration : 2 h 8 min
Bit rate : 17.5 Mb/s
Width : 1 920 pixels
Height : 800 pixels
Display aspect ratio : 2.40:1
Frame rate mode : Constant
Frame rate : 23.976 (24000/1001) FPS
Color space : YUV
Chroma subsampling : 4:2:0
Bit depth : 8 bits
Scan type : Progressive
Bits/(Pixel*Frame) : 0.474
Stream size : 15.7 GiB (96%)
Writing library : x264 core 158 r2984 3759fcb
Encoding settings : cabac=1 / ref=5 / deblock=1:-3:-3 / analyse=0x3:0x133 / me=umh / subme=10 / psy=1 / psy_rd=1.00:0.00 / mixed_ref=1 / me_range=48 / chroma_me=1 / trellis=2 / 8x8dct=1 / cqm=0 / deadzone=21,11 / fast_pskip=0 / chroma_qp_offset=-2 / threads=24 / lookahead_threads=4 / sliced_threads=0 / nr=0 / decimate=0 / interlaced=0 / bluray_compat=0 / constrained_intra=0 / bframes=8 / b_pyramid=2 / b_adapt=2 / b_bias=0 / direct=3 / weightb=1 / open_gop=0 / weightp=2 / keyint=250 / keyint_min=23 / scenecut=40 / intra_refresh=0 / rc=crf / mbtree=0 / crf=17.0 / qcomp=0.60 / qpmin=0 / qpmax=69 / qpstep=4 / ip_ratio=1.30 / pb_ratio=1.20 / aq=3:0.80
Default : Yes
Forced : No

Audio
ID : 2
Format : E-AC-3 JOC
Format/Info : Enhanced AC-3 with Joint Object Coding
Commercial name : Dolby Digital Plus with Dolby Atmos
Codec ID : A_EAC3
Duration : 2 h 8 min
Bit rate mode : Constant
Bit rate : 768 kb/s
Channel(s) : 6 channels
Channel layout : L R C LFE Ls Rs
Sampling rate : 48.0 kHz
Frame rate : 31.250 FPS (1536 SPF)
Compression mode : Lossy
Stream size : 708 MiB (4%)
Title : English
Language : English
Service kind : Complete Main
Default : Yes
Forced : No
Complexity index : 16
Number of dynamic objects : 15
Bed channel count : 1 channel
Bed channel configuration : LFE

Text #1
ID : 3
Format : UTF-8
Codec ID : S_TEXT/UTF8
Codec ID/Info : UTF-8 Plain Text
Duration : 2 h 6 min
Bit rate : 66 b/s
Count of elements : 1872
Stream size : 61.7 KiB (0%)
Language : English
Default : No
Forced : No

Text #2
ID : 4
Format : UTF-8
Codec ID : S_TEXT/UTF8
Codec ID/Info : UTF-8 Plain Text
Duration : 2 h 6 min
Bit rate : 78 b/s
Count of elements : 2192
Stream size : 72.5 KiB (0%)
Title : SDH
Language : English
Default : No
Forced : No

Text #3
ID : 5
Format : UTF-8
Codec ID : S_TEXT/UTF8
Codec ID/Info : UTF-8 Plain Text
Duration : 2 h 5 min
Bit rate : 99 b/s
Count of elements : 1754
Stream size : 91.7 KiB (0%)
Language : Arabic
Default : No
Forced : No

Text #4
ID : 6
Format : UTF-8
Codec ID : S_TEXT/UTF8
Codec ID/Info : UTF-8 Plain Text
Duration : 2 h 5 min
Bit rate : 51 b/s
Count of elements : 1695
Stream size : 46.9 KiB (0%)
Language : Czech
Default : No
Forced : No

Text #5
ID : 7
Format : UTF-8
Codec ID : S_TEXT/UTF8
Codec ID/Info : UTF-8 Plain Text
Duration : 2 h 5 min
Bit rate : 53 b/s
Count of elements : 1634
Stream size : 49.0 KiB (0%)
Language : Danish
Default : No
Forced : No

Text #6
ID : 8
Format : UTF-8
Codec ID : S_TEXT/UTF8
Codec ID/Info : UTF-8 Plain Text
Duration : 2 h 5 min
Bit rate : 58 b/s
Count of elements : 1645
Stream size : 53.9 KiB (0%)
Language : German
Default : No
Forced : No

Text #7
ID : 9
Format : UTF-8
Codec ID : S_TEXT/UTF8
Codec ID/Info : UTF-8 Plain Text
Duration : 2 h 5 min
Bit rate : 90 b/s
Count of elements : 1716
Stream size : 83.2 KiB (0%)
Language : Greek
Default : No
Forced : No

Text #8
ID : 10
Format : UTF-8
Codec ID : S_TEXT/UTF8
Codec ID/Info : UTF-8 Plain Text
Duration : 2 h 7 min
Bit rate : 55 b/s
Count of elements : 1715
Stream size : 51.6 KiB (0%)
Language : Spanish
Default : No
Forced : No

Text #9
ID : 11
Format : UTF-8
Codec ID : S_TEXT/UTF8
Codec ID/Info : UTF-8 Plain Text
Duration : 2 h 5 min
Bit rate : 52 b/s
Count of elements : 1724
Stream size : 48.3 KiB (0%)
Title : European
Language : Spanish
Default : No
Forced : No

Text #10
ID : 12
Format : UTF-8
Codec ID : S_TEXT/UTF8
Codec ID/Info : UTF-8 Plain Text
Duration : 2 h 5 min
Bit rate : 52 b/s
Count of elements : 1480
Stream size : 48.3 KiB (0%)
Language : Finnish
Default : No
Forced : No

Text #11
ID : 13
Format : UTF-8
Codec ID : S_TEXT/UTF8
Codec ID/Info : UTF-8 Plain Text
Duration : 2 h 5 min
Bit rate : 58 b/s
Count of elements : 1623
Stream size : 53.9 KiB (0%)
Language : French
Default : No
Forced : No

Text #12
ID : 14
Format : UTF-8
Codec ID : S_TEXT/UTF8
Codec ID/Info : UTF-8 Plain Text
Duration : 2 h 5 min
Bit rate : 95 b/s
Count of elements : 1705
Stream size : 87.9 KiB (0%)
Language : Hebrew
Default : No
Forced : No

Text #13
ID : 15
Format : UTF-8
Codec ID : S_TEXT/UTF8
Codec ID/Info : UTF-8 Plain Text
Duration : 2 h 5 min
Bit rate : 151 b/s
Count of elements : 1753
Stream size : 139 KiB (0%)
Language : Hindi
Default : No
Forced : No

Text #14
ID : 16
Format : UTF-8
Codec ID : S_TEXT/UTF8
Codec ID/Info : UTF-8 Plain Text
Duration : 2 h 5 min
Bit rate : 54 b/s
Count of elements : 1665
Stream size : 50.0 KiB (0%)
Language : Hungarian
Default : No
Forced : No

Text #15
ID : 17
Format : UTF-8
Codec ID : S_TEXT/UTF8
Codec ID/Info : UTF-8 Plain Text
Duration : 2 h 5 min
Bit rate : 52 b/s
Count of elements : 1742
Stream size : 48.3 KiB (0%)
Language : Indonesian
Default : No
Forced : No

Text #16
ID : 18
Format : UTF-8
Codec ID : S_TEXT/UTF8
Codec ID/Info : UTF-8 Plain Text
Duration : 2 h 5 min
Bit rate : 52 b/s
Count of elements : 1735
Stream size : 48.5 KiB (0%)
Language : Italian
Default : No
Forced : No

Text #17
ID : 19
Format : UTF-8
Codec ID : S_TEXT/UTF8
Codec ID/Info : UTF-8 Plain Text
Duration : 2 h 7 min
Bit rate : 46 b/s
Count of elements : 1805
Stream size : 43.9 KiB (0%)
Language : Japanese
Default : No
Forced : No

Text #18
ID : 20
Format : UTF-8
Codec ID : S_TEXT/UTF8
Codec ID/Info : UTF-8 Plain Text
Duration : 2 h 7 min
Bit rate : 61 b/s
Count of elements : 1757
Stream size : 57.4 KiB (0%)
Language : Korean
Default : No
Forced : No

Text #19
ID : 21
Format : UTF-8
Codec ID : S_TEXT/UTF8
Codec ID/Info : UTF-8 Plain Text
Duration : 2 h 5 min
Bit rate : 49 b/s
Count of elements : 1658
Stream size : 45.8 KiB (0%)
Language : Norwegian Bokmal
Default : No
Forced : No

Text #20
ID : 22
Format : UTF-8
Codec ID : S_TEXT/UTF8
Codec ID/Info : UTF-8 Plain Text
Duration : 2 h 5 min
Bit rate : 51 b/s
Count of elements : 1394
Stream size : 47.0 KiB (0%)
Language : Dutch
Default : No
Forced : No

Text #21
ID : 23
Format : UTF-8
Codec ID : S_TEXT/UTF8
Codec ID/Info : UTF-8 Plain Text
Duration : 2 h 5 min
Bit rate : 47 b/s
Count of elements : 1717
Stream size : 44.1 KiB (0%)
Language : Polish
Default : No
Forced : No

Text #22
ID : 24
Format : UTF-8
Codec ID : S_TEXT/UTF8
Codec ID/Info : UTF-8 Plain Text
Duration : 2 h 5 min
Bit rate : 58 b/s
Count of elements : 1724
Stream size : 53.6 KiB (0%)
Language : Portuguese
Default : No
Forced : No

Text #23
ID : 25
Format : UTF-8
Codec ID : S_TEXT/UTF8
Codec ID/Info : UTF-8 Plain Text
Duration : 2 h 5 min
Bit rate : 50 b/s
Count of elements : 1678
Stream size : 46.5 KiB (0%)
Title : Brazilian
Language : Portuguese
Default : No
Forced : No

Text #24
ID : 26
Format : UTF-8
Codec ID : S_TEXT/UTF8
Codec ID/Info : UTF-8 Plain Text
Duration : 2 h 5 min
Bit rate : 61 b/s
Count of elements : 1677
Stream size : 56.5 KiB (0%)
Language : Romanian
Default : No
Forced : No

Text #25
ID : 27
Format : UTF-8
Codec ID : S_TEXT/UTF8
Codec ID/Info : UTF-8 Plain Text
Duration : 2 h 5 min
Bit rate : 87 b/s
Count of elements : 1643
Stream size : 80.2 KiB (0%)
Language : Russian
Default : No
Forced : No

Text #26
ID : 28
Format : UTF-8
Codec ID : S_TEXT/UTF8
Codec ID/Info : UTF-8 Plain Text
Duration : 2 h 5 min
Bit rate : 53 b/s
Count of elements : 1537
Stream size : 49.3 KiB (0%)
Language : Swedish
Default : No
Forced : No

Text #27
ID : 29
Format : UTF-8
Codec ID : S_TEXT/UTF8
Codec ID/Info : UTF-8 Plain Text
Duration : 2 h 5 min
Bit rate : 146 b/s
Count of elements : 1754
Stream size : 135 KiB (0%)
Language : Thai
Default : No
Forced : No

Text #28
ID : 30
Format : UTF-8
Codec ID : S_TEXT/UTF8
Codec ID/Info : UTF-8 Plain Text
Duration : 2 h 7 min
Bit rate : 52 b/s
Count of elements : 1634
Stream size : 49.2 KiB (0%)
Language : Turkish
Default : No
Forced : No

Text #29
ID : 31
Format : UTF-8
Codec ID : S_TEXT/UTF8
Codec ID/Info : UTF-8 Plain Text
Duration : 2 h 5 min
Bit rate : 75 b/s
Count of elements : 1725
Stream size : 69.0 KiB (0%)
Language : Vietnamese
Default : No
Forced : No

Text #30
ID : 32
Format : UTF-8
Codec ID : S_TEXT/UTF8
Codec ID/Info : UTF-8 Plain Text
Duration : 2 h 7 min
Bit rate : 65 b/s
Count of elements : 1761
Stream size : 61.5 KiB (0%)
Title : Simplified
Language : Chinese
Default : No
Forced : No

Text #31
ID : 33
Format : UTF-8
Codec ID : S_TEXT/UTF8
Codec ID/Info : UTF-8 Plain Text
Duration : 2 h 5 min
Bit rate : 56 b/s
Count of elements : 1771
Stream size : 51.9 KiB (0%)
Title : Traditional
Language : Chinese
Default : No
Forced : No



地下6号磁链: magnet:?xt=urn:btih:9da26b7deb8461da56e51c743f852933f379510d&dn=6.Underground.2019.1080p.NF.WEB.DDP5.1.Atmos.x264-AJP69&tr=http%3A%2F%2Ftracker.trackerfix.com%3A80%2Fannounce&tr=udp%3A%2F%2F9.rarbg.me%3A2730&tr=udp%3A%2F%2F9.rarbg.to%3A2780

本帖子中包含更多资源

您需要 登录 才可以下载或查看,没有帐号?立即注册

x

0

主题

184

帖子

554

积分

龙的传人

Rank: 13Rank: 13Rank: 13

积分
554
发表于 2020-1-6 21:11:59 | 显示全部楼层
楼主发贴辛苦了,谢谢楼主分享!

0

主题

243

帖子

565

积分

龙的传人

Rank: 13Rank: 13Rank: 13

积分
565
发表于 2020-1-6 22:52:41 | 显示全部楼层
ThinkPadyou

1

主题

35

帖子

83

积分

龙之子

Rank: 8Rank: 8Rank: 8Rank: 8

积分
83
发表于 2020-1-8 20:41:44 | 显示全部楼层
感谢发片,,楼主辛苦。

2

主题

3万

帖子

4万

积分

升龙霸·VIP

Rank: 22Rank: 22Rank: 22Rank: 22

积分
42441

龙网爱心勋章龙网VIP·银牌

发表于 2020-1-8 22:42:59 | 显示全部楼层
谢谢楼主发片

21

主题

8876

帖子

1万

积分

神界龙王

Rank: 30Rank: 30Rank: 30Rank: 30

积分
11218
发表于 2020-1-10 15:19:32 | 显示全部楼层
感谢楼主分享大片

0

主题

419

帖子

168

积分

龙之子

Rank: 8Rank: 8Rank: 8Rank: 8

积分
168
QQ
发表于 2020-1-17 20:20:42 | 显示全部楼层
好看的电影

0

主题

24

帖子

43

积分

泡泡龙

Rank: 5Rank: 5Rank: 5

积分
43
发表于 2020-1-26 21:13:23 | 显示全部楼层
楼主发贴辛苦

0

主题

396

帖子

390

积分

升龙霸·VIP

Rank: 22Rank: 22Rank: 22Rank: 22

积分
390

赞助会员 LV1

发表于 2020-2-4 19:43:44 | 显示全部楼层
好东东一定要支持

1

主题

937

帖子

1242

积分

神龙

Rank: 15Rank: 15Rank: 15

积分
1242
发表于 2020-2-12 04:33:12 | 显示全部楼层
谢谢楼主发片

1

主题

846

帖子

1152

积分

神龙

萧哥笑丶

Rank: 15Rank: 15Rank: 15

积分
1152
QQ
发表于 7 天前 | 显示全部楼层

感谢楼主的分享。
秉忠贞之志,守谦退之节
您需要登录后才可以回帖 登录 | 立即注册

本版积分规则

小黑屋|梦幻天堂·龙网

GMT+8, 2020-2-24 19:15 , Processed in 0.390662 second(s), 22 queries , Gzip On.

Powered by Discuz! X3.2

© 2001-2013 Comsenz Inc.

快速回复 返回顶部 返回列表