梦幻天堂·龙网

 找回密码
 立即注册
查看: 380|回复: 6

[1080p] 灯塔.The.Lighthouse.2019.1080p.BluRay.x264.DTS-HD.MA.5.1-FGT 11.66 GB

[复制链接]

6311

主题

8408

帖子

1万

积分

神界龙王

Rank: 30Rank: 30Rank: 30Rank: 30

积分
17962

龙网爱心勋章

发表于 2020-1-4 11:18:38 | 显示全部楼层 |阅读模式
导演: 罗伯特·艾格斯
编剧: 马克斯·艾格斯 / 罗伯特·艾格斯
主演: 威廉·达福 / 罗伯特·帕丁森 / 瓦莱丽娅·卡拉曼
类型: 惊悚 / 恐怖
制片国家/地区: 加拿大 / 美国 / 巴西
语言: 英语
上映日期: 2019-05-19(戛纳电影节) / 2019-09-07(多伦多电影节) / 2019-11-01(美国)
片长: 109分钟
IMDb链接: tt7984734

灯塔的剧情简介 · · · · · ·
  时间背景设置在上世纪初的加拿大新斯科舍,主角是一名年迈的灯塔看守人(达福饰),故事则围绕航海世界的神秘事件展开。

灯塔 The Lighthouse 获奖情况
第72届戛纳电影节  (2019)
导演双周单元(提名) 罗伯特·艾格斯
费比西奖 导演双周单元
第25届美国评论家选择电影奖  (2020)
最佳男配角(提名) 威廉·达福
最佳摄影(提名)
第35届美国独立精神奖  (2020)
最佳导演(提名) 罗伯特·艾格斯
最佳男主角(提名) 罗伯特·帕丁森
最佳男配角(提名) 威廉·达福
最佳摄影(提名)
最佳剪辑(提名)
第29届哥谭独立电影奖  (2019)
最佳男演员(提名) 威廉·达福
第24届金卫星奖  (2020)
电影部门 最佳剧情片(提名)
电影部门 最佳男配角 威廉·达福
第40届伦敦影评人协会奖  (2020)
年度英国/爱尔兰男演员(提名) 罗伯特·帕丁森
第32届芝加哥影评人协会奖  (2019)
最佳摄影(提名) Jarin Blaschke
第23届美国在线影评人协会奖  (2020)
最佳男配角(提名) 威廉·达福
最佳摄影(提名) Jarin Blaschke
[size=10.6667px]
[size=10.6667px]

[size=10.6667px]
Video
ID : 1
Format : AVC
Format/Info : Advanced Video Codec
Format profile : High@L4.1
Format settings : CABAC / 4 Ref Frames
Format settings, CABAC : Yes
Format settings, Reference frames : 4 frames
Codec ID : V_MPEG4/ISO/AVC
Duration : 1 h 49 min
Bit rate : 11.5 Mb/s
Width : 1 296 pixels
Height : 1 080 pixels
Display aspect ratio : 1.200
Frame rate mode : Constant
Frame rate : 23.976 (24000/1001) FPS
Color space : YUV
Chroma subsampling : 4:2:0
Bit depth : 8 bits
Scan type : Progressive
Bits/(Pixel*Frame) : 0.343
Stream size : 8.77 GiB (75%)
Title : The.Lighthouse.2019.1080p.BluRay.x264.DTS-HD.MA.5.1-FGT
Writing library : x264 core 148 r2748 97eaef2
Encoding settings : cabac=1 / ref=4 / deblock=1:-2:-2 / analyse=0x3:0x113 / me=umh / subme=9 / psy=1 / psy_rd=1.00:0.15 / mixed_ref=1 / me_range=16 / chroma_me=1 / trellis=2 / 8x8dct=1 / cqm=0 / deadzone=21,11 / fast_pskip=1 / chroma_qp_offset=-3 / threads=72 / lookahead_threads=3 / sliced_threads=0 / nr=0 / decimate=1 / interlaced=0 / bluray_compat=0 / constrained_intra=0 / bframes=3 / b_pyramid=2 / b_adapt=1 / b_bias=0 / direct=3 / weightb=1 / open_gop=0 / weightp=2 / keyint=250 / keyint_min=25 / scenecut=40 / intra_refresh=0 / rc_lookahead=50 / rc=2pass / mbtree=1 / bitrate=11500 / ratetol=1.0 / qcomp=0.60 / qpmin=0 / qpmax=69 / qpstep=4 / cplxblur=20.0 / qblur=0.5 / vbv_maxrate=31250 / vbv_bufsize=31250 / nal_hrd=none / filler=0 / ip_ratio=1.40 / aq=1:1.00
Language : English
Default : Yes
Forced : No

Audio
ID : 2
Format : DTS XLL
Format/Info : Digital Theater Systems
Commercial name : DTS-HD Master Audio
Codec ID : A_DTS
Duration : 1 h 49 min
Bit rate mode : Variable
Bit rate : 3 762 kb/s
Channel(s) : 6 channels
Channel layout : C L R Ls Rs LFE
Sampling rate : 48.0 kHz
Frame rate : 93.750 FPS (512 SPF)
Bit depth : 24 bits
Compression mode : Lossless
Stream size : 2.87 GiB (25%)
Title : The.Lighthouse.2019.1080p.BluRay.x264.DTS-HD.MA.5.1-FGT
Language : English
Default : Yes
Forced : No

Text #1
ID : 3
Format : UTF-8
Codec ID : S_TEXT/UTF8
Codec ID/Info : UTF-8 Plain Text
Duration : 1 h 36 min
Bit rate : 33 b/s
Count of elements : 763
Stream size : 23.6 KiB (0%)
Title : English-SRT
Language : English
Default : Yes
Forced : No

Text #2
ID : 4
Format : PGS
Muxing mode : zlib
Codec ID : S_HDMV/PGS
Codec ID/Info : Picture based subtitle format used on BDs/HD-DVDs
Duration : 1 h 45 min
Bit rate : 26.3 kb/s
Count of elements : 2052
Stream size : 19.9 MiB (0%)
Title : English-PGS
Language : English
Default : No
Forced : No

Text #3
ID : 5
Format : PGS
Muxing mode : zlib
Codec ID : S_HDMV/PGS
Codec ID/Info : Picture based subtitle format used on BDs/HD-DVDs
Duration : 1 h 41 min
Bit rate : 21.5 kb/s
Count of elements : 1578
Stream size : 15.6 MiB (0%)
Title : Spanish-PGS
Language : Spanish
Default : No
Forced : No

Menu
00:00:00.000 : en:Chapter 1
00:06:49.534 : en:Chapter 2
00:11:47.957 : en:Chapter 3
00:13:44.949 : en:Chapter 4
00:19:52.900 : en:Chapter 5
00:25:33.949 : en:Chapter 6
00:29:54.793 : en:Chapter 7
00:36:23.181 : en:Chapter 8
00:41:28.653 : en:Chapter 9
00:51:00.307 : en:Chapter 10
00:55:48.303 : en:Chapter 11
01:03:43.695 : en:Chapter 12
01:09:40.718 : en:Chapter 13
01:19:01.820 : en:Chapter 14
01:24:46.707 : en:Chapter 15
01:39:42.602 : en:Chapter 16

磁链: magnet:?xt=urn:btih:adc57ea3eb81370974e982a776ed23f9be71cf8d&dn=The.Lighthouse.2019.1080p.BluRay.x264.DTS-HD.MA.5.1-FGT&tr=http%3A%2F%2Ftracker.trackerfix.com%3A80%2Fannounce&tr=udp%3A%2F%2F9.rarbg.me%3A2760&tr=udp%3A%2F%2F9.rarbg.to%3A2750

本帖子中包含更多资源

您需要 登录 才可以下载或查看,没有帐号?立即注册

x

0

主题

320

帖子

443

积分

龙少爷

Rank: 10Rank: 10

积分
443
发表于 2020-1-4 12:52:12 | 显示全部楼层
YOUMEIYOUZHONGWENZHIM

2

主题

3万

帖子

4万

积分

升龙霸·VIP

Rank: 22Rank: 22Rank: 22Rank: 22

积分
42228

龙网爱心勋章龙网VIP·银牌

发表于 2020-1-8 22:46:19 | 显示全部楼层
谢谢楼主发片

21

主题

6741

帖子

8542

积分

海龙王

Rank: 25Rank: 25Rank: 25Rank: 25Rank: 25

积分
8542
发表于 2020-1-10 15:17:18 | 显示全部楼层
感谢楼主分享大片

0

主题

24

帖子

43

积分

泡泡龙

Rank: 5Rank: 5Rank: 5

积分
43
发表于 2020-1-26 22:49:22 | 显示全部楼层
谢谢楼主发片

0

主题

381

帖子

365

积分

升龙霸·VIP

Rank: 22Rank: 22Rank: 22Rank: 22

积分
365

赞助会员 LV1

发表于 3 天前 | 显示全部楼层
感谢楼主分享

0

主题

381

帖子

365

积分

升龙霸·VIP

Rank: 22Rank: 22Rank: 22Rank: 22

积分
365

赞助会员 LV1

发表于 3 天前 | 显示全部楼层
感谢楼主分享
您需要登录后才可以回帖 登录 | 立即注册

本版积分规则

小黑屋|梦幻天堂·龙网

GMT+8, 2020-2-17 11:53 , Processed in 0.129476 second(s), 21 queries , Gzip On.

Powered by Discuz! X3.2

© 2001-2013 Comsenz Inc.

快速回复 返回顶部 返回列表