梦幻天堂·龙网

 找回密码
 立即注册
查看: 290|回复: 3

[1080p] 沉睡魔咒2.Maleficent.Mistress.2019.1080p.BluRay.x264.TrueHD.7.1.Atmos-SWTYBLZ...

[复制链接]

6311

主题

8408

帖子

1万

积分

神界龙王

Rank: 30Rank: 30Rank: 30Rank: 30

积分
17962

龙网爱心勋章

发表于 2020-1-4 11:19:57 | 显示全部楼层 |阅读模式
导演: 乔阿吉姆·罗恩尼
编剧: 迈卡·费兹曼-布卢 / 诺亚·哈普斯特 / 琳达·伍尔芙顿
主演: 安吉丽娜·朱莉 / 艾丽·范宁 / 米歇尔·菲佛 / 萨姆·赖利 / 哈里斯·迪金森 / 艾德·斯克林 / 切瓦特·埃加福 / 朱诺·坦普尔 / 艾美达·斯丹顿 / 加绘·亚历山大 / 莱丝利·曼维尔 / 弗莱迪·怀斯 / 詹·穆瑞 / 石原贵雅 / 大卫·吉亚西 / 罗伯特·林德森 / 朱迪斯·沙克妮 / 伯纳多·桑托斯 / 萨克·霍兰 / 巴里·艾尔德 / 耶斯·利奥丹 / 拉塞尔·巴洛格 / 拉亚·坎普贝尔 / 斯嘉丽·格兰特 / 汤姆·伯宁顿 / 阿克塞尔·努 / 特蕾莎·马奥尼 / 约翰·卡鲁
类型: 奇幻 / 冒险
制片国家/地区: 美国
语言: 英语
上映日期: 2019-10-18(美国/中国大陆)
片长: 119分钟
又名: 沉睡魔咒2:恶魔夫人 / 黑魔后2(港) / 黑魔女2(台) / 玛琳菲森2 / Maleficent 2
IMDb链接: tt4777008

沉睡魔咒2剧情简介 · · · · · ·
  《沉睡魔咒》续集将讲述魔女玛琳菲森(朱莉)和将成为女王的爱洛公主(范宁)关系缓和但依旧复杂,但两人要联手对付新的反派,保护森林王国和那里神奇的动物们。

沉睡魔咒2 Maleficent: Mistress of Evil 获奖情况
第24届美国艺术指导工会奖  (2020)
电影奖 最佳幻想电影艺术指导(提名) 帕特里克·塔特普洛斯
第22届美国服装设计工会奖  (2020)
科幻/奇幻题材电影最佳服装设计(提名) 艾伦·米罗伊尼克
第7届美国化妆及发型设计工会奖  (2020)
电影类最佳年代戏发型设计(提名)
第40届伦敦影评人协会奖  (2020)
年度英国/爱尔兰女演员(提名) 莱丝利·曼维尔
[size=10.6667px]
[size=10.6667px]

[size=10.6667px]
Video
ID : 1
Format : AVC
Format/Info : Advanced Video Codec
Format profile : High@L4.1
Format settings : CABAC / 5 Ref Frames
Format settings, CABAC : Yes
Format settings, Reference frames : 5 frames
Codec ID : V_MPEG4/ISO/AVC
Duration : 1 h 58 min
Bit rate : 9 025 kb/s
Width : 1 920 pixels
Height : 808 pixels
Display aspect ratio : 2.40:1
Frame rate mode : Constant
Frame rate : 23.976 (24000/1001) FPS
Color space : YUV
Chroma subsampling : 4:2:0
Bit depth : 8 bits
Scan type : Progressive
Bits/(Pixel*Frame) : 0.243
Stream size : 7.49 GiB (60%)
Title : Maleficent.Mistress.Of.Evil.2019.1080p.BluRay.x264.TrueHD.7.1.Atmos-SWTYBLZ
Writing library : x264 core 157 r2969 d4099dd
Encoding settings : cabac=1 / ref=5 / deblock=1:-3:-3 / analyse=0x3:0x113 / me=umh / subme=8 / psy=1 / psy_rd=1.00:0.00 / mixed_ref=1 / me_range=16 / chroma_me=1 / trellis=1 / 8x8dct=1 / cqm=0 / deadzone=21,11 / fast_pskip=1 / chroma_qp_offset=-2 / threads=25 / lookahead_threads=4 / sliced_threads=0 / nr=0 / decimate=1 / interlaced=0 / bluray_compat=0 / constrained_intra=0 / bframes=3 / b_pyramid=2 / b_adapt=1 / b_bias=0 / direct=3 / weightb=1 / open_gop=0 / weightp=2 / keyint=250 / keyint_min=23 / scenecut=40 / intra_refresh=0 / rc_lookahead=50 / rc=2pass / mbtree=1 / bitrate=9025 / ratetol=1.0 / qcomp=0.60 / qpmin=0 / qpmax=69 / qpstep=4 / cplxblur=20.0 / qblur=0.5 / ip_ratio=1.40 / aq=1:1.00
Language : English
Default : Yes
Forced : No

Audio #1
ID : 2
Format : MLP FBA 16-ch
Format/Info : Meridian Lossless Packing FBA with 16-channel presentation
Commercial name : Dolby TrueHD with Dolby Atmos
Codec ID : A_TRUEHD
Duration : 1 h 58 min
Bit rate mode : Variable
Bit rate : 5 128 kb/s
Maximum bit rate : 8 160 kb/s
Channel(s) : 8 channels
Channel layout : L R C LFE Ls Rs Lb Rb
Sampling rate : 48.0 kHz
Frame rate : 1 200.000 FPS (40 SPF)
Compression mode : Lossless
Stream size : 4.26 GiB (34%)
Title : Maleficent.Mistress.Of.Evil.2019.1080p.BluRay.x264.TrueHD.7.1.Atmos-SWTYBLZ
Language : English
Default : Yes
Forced : No
Number of dynamic objects : 13
Bed channel count : 1 channel
Bed channel configuration : LFE

Audio #2
ID : 3
Format : AC-3
Format/Info : Audio Coding 3
Commercial name : Dolby Digital
Codec ID : A_AC3
Duration : 1 h 58 min
Bit rate mode : Constant
Bit rate : 640 kb/s
Channel(s) : 6 channels
Channel layout : L R C LFE Ls Rs
Sampling rate : 48.0 kHz
Frame rate : 31.250 FPS (1536 SPF)
Bit depth : 16 bits
Compression mode : Lossy
Stream size : 544 MiB (4%)
Title : Maleficent.Mistress.Of.Evil.2019.1080p.BluRay.x264.TrueHD.7.1.Atmos-SWTYBLZ
Language : English
Service kind : Complete Main
Default : No
Forced : No

Text #1
ID : 4
Format : UTF-8
Codec ID : S_TEXT/UTF8
Codec ID/Info : UTF-8 Plain Text
Duration : 1 h 52 min
Bit rate : 34 b/s
Count of elements : 1145
Stream size : 28.3 KiB (0%)
Title : English-SRT
Language : English
Default : Yes
Forced : No

Text #2
ID : 5
Format : PGS
Muxing mode : zlib
Codec ID : S_HDMV/PGS
Codec ID/Info : Picture based subtitle format used on BDs/HD-DVDs
Duration : 1 h 53 min
Bit rate : 30.9 kb/s
Count of elements : 3210
Stream size : 25.0 MiB (0%)
Title : English-PGS
Language : English
Default : No
Forced : No

Text #3
ID : 6
Format : PGS
Muxing mode : zlib
Codec ID : S_HDMV/PGS
Codec ID/Info : Picture based subtitle format used on BDs/HD-DVDs
Duration : 1 h 57 min
Bit rate : 18.9 kb/s
Count of elements : 1960
Stream size : 15.9 MiB (0%)
Title : French-PGS
Language : French
Default : No
Forced : No

Text #4
ID : 7
Format : PGS
Muxing mode : zlib
Codec ID : S_HDMV/PGS
Codec ID/Info : Picture based subtitle format used on BDs/HD-DVDs
Duration : 1 h 57 min
Bit rate : 21.4 kb/s
Count of elements : 2078
Stream size : 18.0 MiB (0%)
Title : French-PGS
Language : French
Default : No
Forced : No

Text #5
ID : 8
Format : PGS
Muxing mode : zlib
Codec ID : S_HDMV/PGS
Codec ID/Info : Picture based subtitle format used on BDs/HD-DVDs
Duration : 1 h 48 min
Bit rate : 21.2 kb/s
Count of elements : 2022
Stream size : 16.5 MiB (0%)
Title : Spanish-PGS
Language : Spanish
Default : No
Forced : No

Text #6
ID : 9
Format : PGS
Muxing mode : zlib
Codec ID : S_HDMV/PGS
Codec ID/Info : Picture based subtitle format used on BDs/HD-DVDs
Duration : 1 h 57 min
Bit rate : 19.3 kb/s
Count of elements : 2024
Stream size : 16.2 MiB (0%)
Title : Italian-PGS
Language : Italian
Default : No
Forced : No

Text #7
ID : 10
Format : PGS
Muxing mode : zlib
Codec ID : S_HDMV/PGS
Codec ID/Info : Picture based subtitle format used on BDs/HD-DVDs
Duration : 1 h 57 min
Bit rate : 19.0 kb/s
Count of elements : 2138
Stream size : 15.9 MiB (0%)
Title : German-PGS
Language : German
Default : No
Forced : No

Text #8
ID : 11
Format : PGS
Muxing mode : zlib
Codec ID : S_HDMV/PGS
Codec ID/Info : Picture based subtitle format used on BDs/HD-DVDs
Duration : 1 h 57 min
Bit rate : 16.1 kb/s
Count of elements : 1862
Stream size : 13.6 MiB (0%)
Title : Japanese-PGS
Language : Japanese
Default : No
Forced : No

Text #9
ID : 12
Format : PGS
Muxing mode : zlib
Codec ID : S_HDMV/PGS
Codec ID/Info : Picture based subtitle format used on BDs/HD-DVDs
Duration : 1 h 57 min
Bit rate : 18.2 kb/s
Count of elements : 2022
Stream size : 15.3 MiB (0%)
Title : Norwegian-PGS
Language : Norwegian
Default : No
Forced : No

Text #10
ID : 13
Format : PGS
Muxing mode : zlib
Codec ID : S_HDMV/PGS
Codec ID/Info : Picture based subtitle format used on BDs/HD-DVDs
Duration : 1 h 57 min
Bit rate : 17.2 kb/s
Count of elements : 1572
Stream size : 14.4 MiB (0%)
Title : Swedish-PGS
Language : Swedish
Default : No
Forced : No

Menu
00:00:00.000 : en:Chapter 01
00:06:47.907 : en:Chapter 02
00:09:11.676 : en:Chapter 03
00:14:45.551 : en:Chapter 04
00:19:27.833 : en:Chapter 05
00:23:10.555 : en:Chapter 06
00:33:51.904 : en:Chapter 07
00:39:10.264 : en:Chapter 08
00:42:19.245 : en:Chapter 09
00:48:31.992 : en:Chapter 10
00:52:44.619 : en:Chapter 11
00:57:15.056 : en:Chapter 12
00:59:25.895 : en:Chapter 13
01:05:47.568 : en:Chapter 14
01:09:31.750 : en:Chapter 15
01:19:06.867 : en:Chapter 16
01:22:48.546 : en:Chapter 17
01:29:09.218 : en:Chapter 18
01:35:00.403 : en:Chapter 19
01:44:26.510 : en:Chapter 20
01:51:06.993 : en:Chapter 21

磁链: magnet:?xt=urn:btih:445b09a4dc566ac92f38f22c2d9a3c7e00a0c6eb&dn=Maleficent.Mistress.Of.Evil.2019.1080p.BluRay.x264.TrueHD.7.1.Atmos-SWTYBLZ&tr=http%3A%2F%2Ftracker.trackerfix.com%3A80%2Fannounce&tr=udp%3A%2F%2F9.rarbg.me%3A2760&tr=udp%3A%2F%2F9.rarbg.to%3A2740

本帖子中包含更多资源

您需要 登录 才可以下载或查看,没有帐号?立即注册

x

2

主题

3万

帖子

4万

积分

升龙霸·VIP

Rank: 22Rank: 22Rank: 22Rank: 22

积分
42228

龙网爱心勋章龙网VIP·银牌

发表于 2020-1-8 22:45:57 | 显示全部楼层
谢谢楼主发片

21

主题

6741

帖子

8542

积分

海龙王

Rank: 25Rank: 25Rank: 25Rank: 25Rank: 25

积分
8542
发表于 2020-1-22 14:13:22 | 显示全部楼层
谢谢楼主发片分享

0

主题

6

帖子

11

积分

泡泡龙

Rank: 5Rank: 5Rank: 5

积分
11
发表于 3 天前 | 显示全部楼层
感谢楼主辛苦发帖!
您需要登录后才可以回帖 登录 | 立即注册

本版积分规则

小黑屋|梦幻天堂·龙网

GMT+8, 2020-2-17 12:32 , Processed in 0.120824 second(s), 21 queries , Gzip On.

Powered by Discuz! X3.2

© 2001-2013 Comsenz Inc.

快速回复 返回顶部 返回列表