梦幻天堂·龙网

 找回密码
 立即注册
查看: 263|回复: 6

[原盘remux] 双子杀手.2019.1080p.BluRay.REMUX.AVC.DTS-HD.MA.TrueHD.7.1.Atmos-FGT 33.91 GB...

[复制链接]

6311

主题

8408

帖子

1万

积分

神界龙王

Rank: 30Rank: 30Rank: 30Rank: 30

积分
17962

龙网爱心勋章

发表于 2020-1-4 11:22:42 | 显示全部楼层 |阅读模式
导演: 李安
编剧: 戴维·贝尼奥夫 / 比利·雷 / 达伦·莱姆克
主演: 威尔·史密斯 / 玛丽·伊丽莎白·温斯特德 / 克里夫·欧文 / 本尼迪克特·王 / 道格拉斯·霍奇斯 / 拉尔夫·布朗 / 琳达·伊蒙 / 伊利亚·沃里克 / E·J·博尼拉 / 维克多·雨果 / 大卫·莫拉蒂 / 西奥多拉·伍利 / 亚历山德拉·苏奇 / 费尔南达·多罗吉 / 提姆·康纳利 / 比约恩·弗赖贝格 / 施奎塔·詹姆斯 Shiquita James / 肯尼·谢尔德 / Diego Adonye / Igor Szasz / Lilla Banak
类型: 剧情 / 动作 / 科幻
制片国家/地区: 美国 / 中国大陆
语言: 英语
上映日期: 2019-10-18(中国大陆) / 2019-09-25(匈牙利) / 2019-10-11(美国)
片长: 117分钟
又名: 双子任务:叠影危机(港) / 双子煞星
IMDb链接: tt1025100

双子杀手的剧情简介 · · · · · ·
  美国国防情报局特工亨利(威尔·史密斯饰),准备退休之际意外遭到一名神秘杀手的追杀,在两人的激烈较量中,他发现这名杀手竟然是年轻了20多岁的自己,一场我与我的对决旋即展开,而背后的真相也逐渐浮出水面。
[size=10.6667px]
[size=10.6667px]

[size=10.6667px]
Video
ID : 1
Format : AVC
Format/Info : Advanced Video Codec
Format profile : High@L4.1
Format settings : CABAC / 4 Ref Frames
Format settings, CABAC : Yes
Format settings, Reference frames : 4 frames
Codec ID : V_MPEG4/ISO/AVC
Duration : 1 h 57 min
Bit rate mode : Variable
Bit rate : 27.1 Mb/s
Maximum bit rate : 30.2 Mb/s
Width : 1 920 pixels
Height : 1 080 pixels
Display aspect ratio : 16:9
Frame rate mode : Constant
Frame rate : 23.976 (24000/1001) FPS
Color space : YUV
Chroma subsampling : 4:2:0
Bit depth : 8 bits
Scan type : Progressive
Bits/(Pixel*Frame) : 0.546
Stream size : 22.2 GiB (65%)
Title : Gemini.Man.2019.1080p.BluRay.REMUX.AVC.DTS-HD.MA.TrueHD.7.1.Atmos-FGT
Language : English
Default : No
Forced : No

Audio #1
ID : 2
Format : MLP FBA 16-ch
Format/Info : Meridian Lossless Packing FBA with 16-channel presentation
Commercial name : Dolby TrueHD with Dolby Atmos
Codec ID : A_TRUEHD
Duration : 1 h 57 min
Bit rate mode : Variable
Bit rate : 4 205 kb/s
Maximum bit rate : 7 944 kb/s
Channel(s) : 8 channels
Channel layout : L R C LFE Ls Rs Lb Rb
Sampling rate : 48.0 kHz
Frame rate : 1 200.000 FPS (40 SPF)
Compression mode : Lossless
Stream size : 3.44 GiB (10%)
Title : Gemini.Man.2019.1080p.BluRay.REMUX.AVC.DTS-HD.MA.TrueHD.7.1.Atmos-FGT
Language : English
Default : Yes
Forced : No
Number of dynamic objects : 11
Bed channel count : 1 channel
Bed channel configuration : LFE

Audio #2
ID : 3
Format : DTS XLL
Format/Info : Digital Theater Systems
Commercial name : DTS-HD Master Audio
Codec ID : A_DTS
Duration : 1 h 57 min
Bit rate mode : Variable
Bit rate : 4 125 kb/s
Channel(s) : 8 channels
Channel layout : C L R LFE Lb Rb Lss Rss
Sampling rate : 48.0 kHz
Frame rate : 93.750 FPS (512 SPF)
Bit depth : 24 bits
Compression mode : Lossless
Stream size : 3.37 GiB (10%)
Title : Gemini.Man.2019.1080p.BluRay.REMUX.AVC.DTS-HD.MA.TrueHD.7.1.Atmos-FGT
Language : English
Default : No
Forced : No

Audio #3
ID : 4
Format : AC-3
Format/Info : Audio Coding 3
Commercial name : Dolby Digital
Codec ID : A_AC3
Duration : 1 h 57 min
Bit rate mode : Constant
Bit rate : 640 kb/s
Channel(s) : 6 channels
Channel layout : L R C LFE Ls Rs
Sampling rate : 48.0 kHz
Frame rate : 31.250 FPS (1536 SPF)
Bit depth : 16 bits
Compression mode : Lossy
Stream size : 536 MiB (2%)
Title : Gemini.Man.2019.1080p.BluRay.REMUX.AVC.DTS-HD.MA.TrueHD.7.1.Atmos-FGT
Language : English
Service kind : Complete Main
Default : No
Forced : No

Audio #4
ID : 5
Format : AC-3
Format/Info : Audio Coding 3
Commercial name : Dolby Digital
Codec ID : A_AC3
Duration : 1 h 57 min
Bit rate mode : Constant
Bit rate : 640 kb/s
Channel(s) : 6 channels
Channel layout : L R C LFE Ls Rs
Sampling rate : 48.0 kHz
Frame rate : 31.250 FPS (1536 SPF)
Bit depth : 16 bits
Compression mode : Lossy
Stream size : 536 MiB (2%)
Title : Gemini.Man.2019.1080p.BluRay.REMUX.AVC.DTS-HD.MA.TrueHD.7.1.Atmos-FGT
Language : English
Service kind : Complete Main
Default : No
Forced : No

Audio #5
ID : 6
Format : AC-3
Format/Info : Audio Coding 3
Commercial name : Dolby Digital
Codec ID : A_AC3
Duration : 1 h 57 min
Bit rate mode : Constant
Bit rate : 640 kb/s
Channel(s) : 6 channels
Channel layout : L R C LFE Ls Rs
Sampling rate : 48.0 kHz
Frame rate : 31.250 FPS (1536 SPF)
Bit depth : 16 bits
Compression mode : Lossy
Stream size : 536 MiB (2%)
Title : Gemini.Man.2019.1080p.BluRay.REMUX.AVC.DTS-HD.MA.TrueHD.7.1.Atmos-FGT
Language : Spanish
Service kind : Complete Main
Default : No
Forced : No

Audio #6
ID : 7
Format : AC-3
Format/Info : Audio Coding 3
Commercial name : Dolby Digital
Codec ID : A_AC3
Duration : 1 h 57 min
Bit rate mode : Constant
Bit rate : 640 kb/s
Channel(s) : 6 channels
Channel layout : L R C LFE Ls Rs
Sampling rate : 48.0 kHz
Frame rate : 31.250 FPS (1536 SPF)
Bit depth : 16 bits
Compression mode : Lossy
Stream size : 536 MiB (2%)
Title : Gemini.Man.2019.1080p.BluRay.REMUX.AVC.DTS-HD.MA.TrueHD.7.1.Atmos-FGT
Language : French
Service kind : Complete Main
Default : No
Forced : No

Audio #7
ID : 8
Format : AC-3
Format/Info : Audio Coding 3
Commercial name : Dolby Digital
Codec ID : A_AC3
Duration : 1 h 57 min
Bit rate mode : Constant
Bit rate : 640 kb/s
Channel(s) : 6 channels
Channel layout : L R C LFE Ls Rs
Sampling rate : 48.0 kHz
Frame rate : 31.250 FPS (1536 SPF)
Bit depth : 16 bits
Compression mode : Lossy
Stream size : 536 MiB (2%)
Title : Gemini.Man.2019.1080p.BluRay.REMUX.AVC.DTS-HD.MA.TrueHD.7.1.Atmos-FGT
Language : French
Service kind : Complete Main
Default : No
Forced : No

Audio #8
ID : 9
Format : AC-3
Format/Info : Audio Coding 3
Commercial name : Dolby Digital
Codec ID : A_AC3
Duration : 1 h 57 min
Bit rate mode : Constant
Bit rate : 640 kb/s
Channel(s) : 6 channels
Channel layout : L R C LFE Ls Rs
Sampling rate : 48.0 kHz
Frame rate : 31.250 FPS (1536 SPF)
Bit depth : 16 bits
Compression mode : Lossy
Stream size : 536 MiB (2%)
Title : Gemini.Man.2019.1080p.BluRay.REMUX.AVC.DTS-HD.MA.TrueHD.7.1.Atmos-FGT
Language : Italian
Service kind : Complete Main
Default : No
Forced : No

Audio #9
ID : 10
Format : AC-3
Format/Info : Audio Coding 3
Commercial name : Dolby Digital
Codec ID : A_AC3
Duration : 1 h 57 min
Bit rate mode : Constant
Bit rate : 640 kb/s
Channel(s) : 6 channels
Channel layout : L R C LFE Ls Rs
Sampling rate : 48.0 kHz
Frame rate : 31.250 FPS (1536 SPF)
Bit depth : 16 bits
Compression mode : Lossy
Stream size : 536 MiB (2%)
Title : Gemini.Man.2019.1080p.BluRay.REMUX.AVC.DTS-HD.MA.TrueHD.7.1.Atmos-FGT
Language : Japanese
Service kind : Complete Main
Default : No
Forced : No

Audio #10
ID : 11
Format : AC-3
Format/Info : Audio Coding 3
Commercial name : Dolby Digital
Codec ID : A_AC3
Duration : 1 h 57 min
Bit rate mode : Constant
Bit rate : 640 kb/s
Channel(s) : 6 channels
Channel layout : L R C LFE Ls Rs
Sampling rate : 48.0 kHz
Frame rate : 31.250 FPS (1536 SPF)
Bit depth : 16 bits
Compression mode : Lossy
Stream size : 536 MiB (2%)
Title : Gemini.Man.2019.1080p.BluRay.REMUX.AVC.DTS-HD.MA.TrueHD.7.1.Atmos-FGT
Language : Portuguese
Service kind : Complete Main
Default : No
Forced : No

Audio #11
ID : 12
Format : AC-3
Format/Info : Audio Coding 3
Commercial name : Dolby Digital
Codec ID : A_AC3
Duration : 1 h 57 min
Bit rate mode : Constant
Bit rate : 640 kb/s
Channel(s) : 6 channels
Channel layout : L R C LFE Ls Rs
Sampling rate : 48.0 kHz
Frame rate : 31.250 FPS (1536 SPF)
Bit depth : 16 bits
Compression mode : Lossy
Stream size : 536 MiB (2%)
Title : Gemini.Man.2019.1080p.BluRay.REMUX.AVC.DTS-HD.MA.TrueHD.7.1.Atmos-FGT
Language : Thai
Service kind : Complete Main
Default : No
Forced : No

Text #1
ID : 13
Format : UTF-8
Codec ID : S_TEXT/UTF8
Codec ID/Info : UTF-8 Plain Text
Duration : 1 h 45 min
Bit rate : 49 b/s
Count of elements : 1313
Stream size : 37.9 KiB (0%)
Title : English-SRT
Language : English
Default : Yes
Forced : No

Text #2
ID : 14
Format : PGS
Muxing mode : zlib
Codec ID : S_HDMV/PGS
Codec ID/Info : Picture based subtitle format used on BDs/HD-DVDs
Duration : 1 h 45 min
Bit rate : 34.6 kb/s
Count of elements : 2642
Stream size : 26.1 MiB (0%)
Title : English-PGS
Language : English
Default : No
Forced : No

Text #3
ID : 15
Format : PGS
Muxing mode : zlib
Codec ID : S_HDMV/PGS
Codec ID/Info : Picture based subtitle format used on BDs/HD-DVDs
Duration : 1 h 45 min
Bit rate : 39.9 kb/s
Count of elements : 3080
Stream size : 30.2 MiB (0%)
Title : English-SDH-PGS
Language : English
Default : No
Forced : No

Text #4
ID : 16
Format : PGS
Muxing mode : zlib
Codec ID : S_HDMV/PGS
Codec ID/Info : Picture based subtitle format used on BDs/HD-DVDs
Duration : 1 h 55 min
Bit rate : 35.2 kb/s
Count of elements : 2656
Stream size : 29.0 MiB (0%)
Title : Malay-PGS
Language : Malay
Default : No
Forced : No

Text #5
ID : 17
Format : PGS
Muxing mode : zlib
Codec ID : S_HDMV/PGS
Codec ID/Info : Picture based subtitle format used on BDs/HD-DVDs
Duration : 1 h 55 min
Bit rate : 25.7 kb/s
Count of elements : 2674
Stream size : 21.3 MiB (0%)
Title : Chinese-PGS
Language : Chinese
Default : No
Forced : No

Text #6
ID : 18
Format : PGS
Muxing mode : zlib
Codec ID : S_HDMV/PGS
Codec ID/Info : Picture based subtitle format used on BDs/HD-DVDs
Duration : 1 h 55 min
Bit rate : 30.6 kb/s
Count of elements : 2668
Stream size : 25.3 MiB (0%)
Title : Spanish-PGS
Language : Spanish
Default : No
Forced : No

Text #7
ID : 19
Format : PGS
Muxing mode : zlib
Codec ID : S_HDMV/PGS
Codec ID/Info : Picture based subtitle format used on BDs/HD-DVDs
Duration : 1 h 55 min
Bit rate : 215 b/s
Count of elements : 22
Stream size : 183 KiB (0%)
Title : Spanish-FORCED-PGS
Language : Spanish
Default : No
Forced : No

Text #8
ID : 20
Format : PGS
Muxing mode : zlib
Codec ID : S_HDMV/PGS
Codec ID/Info : Picture based subtitle format used on BDs/HD-DVDs
Duration : 1 h 55 min
Bit rate : 27.0 kb/s
Count of elements : 2560
Stream size : 22.3 MiB (0%)
Title : French-PGS
Language : French
Default : No
Forced : No

Text #9
ID : 21
Format : PGS
Muxing mode : zlib
Codec ID : S_HDMV/PGS
Codec ID/Info : Picture based subtitle format used on BDs/HD-DVDs
Duration : 1 h 55 min
Bit rate : 193 b/s
Count of elements : 20
Stream size : 163 KiB (0%)
Title : French-FORCED-PGS
Language : French
Default : No
Forced : No

Text #10
ID : 22
Format : PGS
Muxing mode : zlib
Codec ID : S_HDMV/PGS
Codec ID/Info : Picture based subtitle format used on BDs/HD-DVDs
Duration : 1 h 55 min
Bit rate : 33.1 kb/s
Count of elements : 2648
Stream size : 27.4 MiB (0%)
Title : French-PGS
Language : French
Default : No
Forced : No

Text #11
ID : 23
Format : PGS
Muxing mode : zlib
Codec ID : S_HDMV/PGS
Codec ID/Info : Picture based subtitle format used on BDs/HD-DVDs
Duration : 1 h 55 min
Bit rate : 214 b/s
Count of elements : 22
Stream size : 182 KiB (0%)
Title : French-FORCED-PGS
Language : French
Default : No
Forced : No

Text #12
ID : 24
Format : PGS
Muxing mode : zlib
Codec ID : S_HDMV/PGS
Codec ID/Info : Picture based subtitle format used on BDs/HD-DVDs
Duration : 1 h 55 min
Bit rate : 31.0 kb/s
Count of elements : 2616
Stream size : 25.6 MiB (0%)
Title : Italian-PGS
Language : Italian
Default : No
Forced : No

Text #13
ID : 25
Format : PGS
Muxing mode : zlib
Codec ID : S_HDMV/PGS
Codec ID/Info : Picture based subtitle format used on BDs/HD-DVDs
Duration : 1 h 55 min
Bit rate : 139 b/s
Count of elements : 16
Stream size : 118 KiB (0%)
Title : Italian-FORCED-PGS
Language : Italian
Default : No
Forced : No

Text #14
ID : 26
Format : PGS
Muxing mode : zlib
Codec ID : S_HDMV/PGS
Codec ID/Info : Picture based subtitle format used on BDs/HD-DVDs
Duration : 1 h 47 min
Bit rate : 22.2 kb/s
Count of elements : 2291
Stream size : 17.1 MiB (0%)
Title : Japanese-PGS
Language : Japanese
Default : No
Forced : No

Text #15
ID : 27
Format : PGS
Muxing mode : zlib
Codec ID : S_HDMV/PGS
Codec ID/Info : Picture based subtitle format used on BDs/HD-DVDs
Duration : 1 h 55 min
Bit rate : 23.2 kb/s
Count of elements : 2674
Stream size : 19.2 MiB (0%)
Title : Korean-PGS
Language : Korean
Default : No
Forced : No

Text #16
ID : 28
Format : PGS
Muxing mode : zlib
Codec ID : S_HDMV/PGS
Codec ID/Info : Picture based subtitle format used on BDs/HD-DVDs
Duration : 1 h 55 min
Bit rate : 27.2 kb/s
Count of elements : 2674
Stream size : 22.6 MiB (0%)
Title : Chinese-PGS
Language : Chinese
Default : No
Forced : No

Text #17
ID : 29
Format : PGS
Muxing mode : zlib
Codec ID : S_HDMV/PGS
Codec ID/Info : Picture based subtitle format used on BDs/HD-DVDs
Duration : 1 h 55 min
Bit rate : 28.5 kb/s
Count of elements : 2482
Stream size : 23.6 MiB (0%)
Title : Dutch-PGS
Language : Dutch
Default : No
Forced : No

Text #18
ID : 30
Format : PGS
Muxing mode : zlib
Codec ID : S_HDMV/PGS
Codec ID/Info : Picture based subtitle format used on BDs/HD-DVDs
Duration : 1 h 55 min
Bit rate : 28.5 kb/s
Count of elements : 2640
Stream size : 23.6 MiB (0%)
Title : Portuguese-PGS
Language : Portuguese
Default : No
Forced : No

Text #19
ID : 31
Format : PGS
Muxing mode : zlib
Codec ID : S_HDMV/PGS
Codec ID/Info : Picture based subtitle format used on BDs/HD-DVDs
Duration : 1 h 55 min
Bit rate : 286 b/s
Count of elements : 26
Stream size : 243 KiB (0%)
Title : Portuguese-FORCED-PGS
Language : Portuguese
Default : No
Forced : No

Text #20
ID : 32
Format : PGS
Muxing mode : zlib
Codec ID : S_HDMV/PGS
Codec ID/Info : Picture based subtitle format used on BDs/HD-DVDs
Duration : 1 h 55 min
Bit rate : 24.8 kb/s
Count of elements : 2674
Stream size : 20.6 MiB (0%)
Title : Thai-PGS
Language : Thai
Default : No
Forced : No

Text #21
ID : 33
Format : PGS
Muxing mode : zlib
Codec ID : S_HDMV/PGS
Codec ID/Info : Picture based subtitle format used on BDs/HD-DVDs
Duration : 39 min 26 s
Bit rate : 186 b/s
Count of elements : 8
Stream size : 53.8 KiB (0%)
Title : Thai-FORCED-PGS
Language : Thai
Default : No
Forced : No

Text #22
ID : 34
Format : PGS
Muxing mode : zlib
Codec ID : S_HDMV/PGS
Codec ID/Info : Picture based subtitle format used on BDs/HD-DVDs
Duration : 1 h 47 min
Bit rate : 280 b/s
Count of elements : 28
Stream size : 221 KiB (0%)
Title : Japanese-FORCED-PGS
Language : Japanese
Default : No
Forced : No

Menu
00:00:00.000 : en:Chapter 01
00:07:21.649 : en:Chapter 02
00:15:31.680 : en:Chapter 03
00:18:13.133 : en:Chapter 04
00:24:39.394 : en:Chapter 05
00:30:59.440 : en:Chapter 06
00:34:09.464 : en:Chapter 07
00:42:40.307 : en:Chapter 08
00:50:25.480 : en:Chapter 09
00:56:45.819 : en:Chapter 10
01:03:30.306 : en:Chapter 11
01:08:13.172 : en:Chapter 12
01:16:45.934 : en:Chapter 13
01:24:43.995 : en:Chapter 14
01:30:04.732 : en:Chapter 15
01:34:00.926 : en:Chapter 16
01:42:14.461 : en:Chapter 17
01:47:07.712 : en:Chapter 18

磁链: magnet:?xt=urn:btih:e2f1c97d9393771edc5967d0972c570849aa06a6&dn=Gemini.Man.2019.1080p.BluRay.REMUX.AVC.DTS-HD.MA.TrueHD.7.1.Atmos-FGT&tr=http%3A%2F%2Ftracker.trackerfix.com%3A80%2Fannounce&tr=udp%3A%2F%2F9.rarbg.me%3A2770&tr=udp%3A%2F%2F9.rarbg.to%3A2710

本帖子中包含更多资源

您需要 登录 才可以下载或查看,没有帐号?立即注册

x

2

主题

197

帖子

284

积分

龙少爷

Rank: 10Rank: 10

积分
284
发表于 2020-1-4 15:15:34 | 显示全部楼层
谢谢你的付出

1

主题

120

帖子

234

积分

龙少爷

Rank: 10Rank: 10

积分
234
发表于 2020-1-8 20:15:55 | 显示全部楼层
感谢楼主分享!!!!

2

主题

3万

帖子

4万

积分

升龙霸·VIP

Rank: 22Rank: 22Rank: 22Rank: 22

积分
42228

龙网爱心勋章龙网VIP·银牌

发表于 2020-1-8 22:44:44 | 显示全部楼层
谢谢楼主发片

0

主题

42

帖子

58

积分

泡泡龙

Rank: 5Rank: 5Rank: 5

积分
58
发表于 2020-1-10 15:12:36 | 显示全部楼层
20160P的看不了,只能下这个1080的了···

0

主题

35

帖子

51

积分

泡泡龙

Rank: 5Rank: 5Rank: 5

积分
51
发表于 2020-2-6 19:27:16 | 显示全部楼层
xiangkanxiangkan

1

主题

827

帖子

1097

积分

神龙

Rank: 15Rank: 15Rank: 15

积分
1097
发表于 5 天前 | 显示全部楼层
谢谢楼主发片
您需要登录后才可以回帖 登录 | 立即注册

本版积分规则

小黑屋|梦幻天堂·龙网

GMT+8, 2020-2-17 11:50 , Processed in 0.129563 second(s), 21 queries , Gzip On.

Powered by Discuz! X3.2

© 2001-2013 Comsenz Inc.

快速回复 返回顶部 返回列表