梦幻天堂·龙网

 找回密码
 立即注册
查看: 649|回复: 12

[1080p] 国产凌凌漆.From.Beijing.with.Love.1994.CHINESE.1080p.BluRay.x264-iKiW 12.06

[复制链接]

6311

主题

8408

帖子

1万

积分

神界龙王

Rank: 30Rank: 30Rank: 30Rank: 30

积分
17962

龙网爱心勋章

发表于 2020-1-10 17:56:35 | 显示全部楼层 |阅读模式
导演: 李力持 / 周星驰
编剧: 谷德昭 / 李力持 / 张肇麟 / 周星驰
主演: 周星驰 / 袁咏仪 / 罗家英 / 陈宝莲 / 郑祖 / 黄锦江 / 李力持 / 于荣光 / 李健仁 / 古明华 / 黄一飞 / 梁思浩 / 梁小熊 / 曾守明 / 邓兆尊 / 梁克逊 / 黄老邪 / 叶进
类型: 喜剧 / 动作
制片国家/地区: 中国香港
语言: 汉语普通话 / 粤语
上映日期: 1994-10-13(中国香港)
片长: 83分钟
又名: 凌凌漆大战金枪客 / 国产零零漆 / 国产007 / From Beijing with Love
IMDb链接: tt0109962

国产凌凌漆的剧情简介 · · · · · ·
  一代著名特工凌凌漆(周星驰 饰)长期被上级弃用,沦为卖肉摊主。一具价值连城的恐龙骨架被一个浑身盔甲的金枪客盗去,因为线索少任务危险,凌凌漆又被高层领导委以重任。 凌凌漆依循线索来到香港,与联络人香琴(袁咏仪 饰)碰头,不想香琴处心积虑找机会要将凌凌漆杀死,原来她的另一身份是金枪客派来的杀手,但经历过出生入死的战斗后,香琴与凌凌漆渐生出了真情。而此时,金枪客的真实身份也被曝光,发现自己掉进某个阴谋里的凌凌漆开始奋力与敌手较量。

国产凌凌漆 國產凌凌漆 获奖情况
第14届香港电影金像奖  (1995)
最佳男主角(提名) 周星驰
最佳男配角(提名) 罗家英
[size=10.6667px]
[size=10.6667px]

[size=10.6667px]
Video
ID : 1
Format : AVC
Format/Info : Advanced Video Codec
Format profile : High@L4.1
Format settings : CABAC / 4 Ref Frames
Format settings, CABAC : Yes
Format settings, Reference frames : 4 frames
Codec ID : V_MPEG4/ISO/AVC
Duration : 1 h 23 min
Bit rate : 20.0 Mb/s
Width : 1 920 pixels
Height : 1 080 pixels
Display aspect ratio : 16:9
Frame rate mode : Constant
Frame rate : 24.000 FPS
Color space : YUV
Chroma subsampling : 4:2:0
Bit depth : 8 bits
Scan type : Progressive
Bits/(Pixel*Frame) : 0.402
Stream size : 11.7 GiB (97%)
Writing library : x264 core 130 r2273 b3065e6
Encoding settings : cabac=1 / ref=4 / deblock=1:-3:-3 / analyse=0x3:0x113 / me=umh / subme=11 / psy=1 / psy_rd=0.90:0.10 / mixed_ref=1 / me_range=32 / chroma_me=1 / trellis=2 / 8x8dct=1 / cqm=0 / deadzone=21,11 / fast_pskip=0 / chroma_qp_offset=-5 / threads=12 / lookahead_threads=3 / sliced_threads=0 / nr=0 / decimate=0 / interlaced=0 / bluray_compat=0 / constrained_intra=0 / bframes=10 / b_pyramid=2 / b_adapt=2 / b_bias=0 / direct=3 / weightb=1 / open_gop=0 / weightp=2 / keyint=250 / keyint_min=24 / scenecut=40 / intra_refresh=0 / rc_lookahead=80 / rc=2pass / mbtree=1 / bitrate=20000 / ratetol=1.0 / qcomp=0.60 / qpmin=0 / qpmax=69 / qpstep=4 / cplxblur=20.0 / qblur=0.5 / ip_ratio=1.40 / aq=1:0.65
Language : English
Default : Yes
Forced : No

Audio
ID : 2
Format : AC-3
Format/Info : Audio Coding 3
Commercial name : Dolby Digital
Codec ID : A_AC3
Duration : 1 h 23 min
Bit rate mode : Constant
Bit rate : 640 kb/s
Channel(s) : 6 channels
Channel layout : L R C LFE Ls Rs
Sampling rate : 48.0 kHz
Frame rate : 31.250 FPS (1536 SPF)
Bit depth : 16 bits
Compression mode : Lossy
Stream size : 383 MiB (3%)
Title : ç2¤èˉ-
Language : Chinese
Service kind : Complete Main
Default : Yes
Forced : No

Text
ID : 3
Format : UTF-8
Codec ID : S_TEXT/UTF8
Codec ID/Info : UTF-8 Plain Text
Duration : 1 h 20 min
Bit rate : 45 b/s
Count of elements : 1068
Stream size : 26.7 KiB (0%)
Language : English
Default : Yes
Forced : No

磁链: magnet:?xt=urn:btih:4258a20c443d86d43dcd20a7e5e0a0160454de4f&dn=From.Beijing.with.Love.1994.CHINESE.1080p.BluRay.x264-iKiW&tr=http%3A%2F%2Ftracker.trackerfix.com%3A80%2Fannounce&tr=udp%3A%2F%2F9.rarbg.me%3A2740&tr=udp%3A%2F%2F9.rarbg.to%3A2790
上传的附件:

本帖子中包含更多资源

您需要 登录 才可以下载或查看,没有帐号?立即注册

x

0

主题

182

帖子

545

积分

龙的传人

Rank: 13Rank: 13Rank: 13

积分
545
发表于 2020-1-10 21:11:19 | 显示全部楼层
楼主发贴辛苦了,谢谢楼主分享!

0

主题

1222

帖子

2862

积分

赤血神龙

Rank: 20Rank: 20Rank: 20Rank: 20

积分
2862
发表于 2020-1-10 21:55:24 | 显示全部楼层
感謝樓主分享!

1

主题

295

帖子

833

积分

龙的传人

Rank: 13Rank: 13Rank: 13

积分
833
发表于 2020-1-10 23:29:18 | 显示全部楼层
谢谢楼主分享

2

主题

3万

帖子

4万

积分

升龙霸·VIP

Rank: 22Rank: 22Rank: 22Rank: 22

积分
42228

龙网爱心勋章龙网VIP·银牌

发表于 2020-1-11 15:37:19 | 显示全部楼层
谢谢楼主发片

1

主题

9

帖子

20

积分

泡泡龙

Rank: 5Rank: 5Rank: 5

积分
20
发表于 2020-1-13 21:23:40 | 显示全部楼层
感谢分享!!!

0

主题

63

帖子

119

积分

龙之子

Rank: 8Rank: 8Rank: 8Rank: 8

积分
119
发表于 2020-1-16 09:25:53 | 显示全部楼层
特别经典,感谢发片

0

主题

151

帖子

1359

积分

神龙

Rank: 15Rank: 15Rank: 15

积分
1359

龙网爱心勋章

发表于 2020-1-21 10:31:18 | 显示全部楼层
只有粤语,慎下

21

主题

6741

帖子

8542

积分

海龙王

Rank: 25Rank: 25Rank: 25Rank: 25Rank: 25

积分
8542
发表于 2020-1-22 14:12:21 | 显示全部楼层
谢谢楼主发片分享

0

主题

29

帖子

314

积分

龙少爷

Rank: 10Rank: 10

积分
314
发表于 2020-2-2 20:28:47 | 显示全部楼层
经典的片子~喜欢啊~

0

主题

7

帖子

58

积分

泡泡龙

Rank: 5Rank: 5Rank: 5

积分
58
发表于 2020-2-4 18:57:14 | 显示全部楼层
感谢楼主分享!

1

主题

827

帖子

1097

积分

神龙

Rank: 15Rank: 15Rank: 15

积分
1097
发表于 5 天前 | 显示全部楼层
谢谢楼主发片

1

主题

58

帖子

88

积分

龙之子

Rank: 8Rank: 8Rank: 8Rank: 8

积分
88
发表于 2 小时前 | 显示全部楼层
超级经典的片子,感谢
您需要登录后才可以回帖 登录 | 立即注册

本版积分规则

小黑屋|梦幻天堂·龙网

GMT+8, 2020-2-17 12:15 , Processed in 0.130071 second(s), 21 queries , Gzip On.

Powered by Discuz! X3.2

© 2001-2013 Comsenz Inc.

快速回复 返回顶部 返回列表