梦幻天堂·龙网

 找回密码
 立即注册
查看: 634|回复: 7

[原盘remux] 丧尸乐园2.2019.2160p.UHD.BluRay.X265.10bit.HDR.DTS-X.7.1-AAAUHD 11.69GB

[复制链接]

6311

主题

8408

帖子

1万

积分

神界龙王

Rank: 30Rank: 30Rank: 30Rank: 30

积分
17962

龙网爱心勋章

发表于 2020-1-10 17:59:47 | 显示全部楼层 |阅读模式
导演: 鲁本·弗雷斯彻
编剧: 戴夫·卡拉汉姆 / 瑞特·里斯 / 保罗·韦尼克
主演: 伍迪·哈里森 / 杰西·艾森伯格 / 艾玛·斯通 / 阿比盖尔·布雷斯林 / 佐伊·达奇 / 阿万·乔贾 / 罗莎里奥·道森 / 卢克·威尔逊 / 托马斯·米德蒂奇 / 维多利亚·哈尔 / 维克多·里维拉 / 伊恩·格雷格 / 德文·莫吉卡 / 瑞秋·鲁特雷尔 / 约翰·迪克森 / 比尔·默瑞 / 阿尔·罗克 / 莉莉·埃斯特凡 / 塞尔吉奥·布里奥内斯 / 蒂莫西·卡尔 / 扎拉·麦克道威尔 / 迪索·拉莫斯
类型: 喜剧 / 动作 / 恐怖
官方网站: zombieland.com
制片国家/地区: 美国 / 加拿大
语言: 英语
上映日期: 2019-10-09(中国台湾) / 2019-10-18(美国)
片长: 99分钟
又名: 丧尸乐园:连环尸杀(港) / 尸乐园:脏比双拼(台) / 僵尸之地2 / 僵尸之地2:双击 / 丧尸乐园2:双击 / Zombieland 2
IMDb链接: tt1560220

丧尸乐园2的剧情简介 · · · · · ·
  《僵尸之地》是鲁本·弗雷斯彻的导演处女作,上映后好评如潮——获得了烂番茄89%的惊人好评率,此片一举奠定了鲁本在好莱坞商业领域的地位。首映周末以2500万美元登顶冠军的《僵尸之地》,是受到几年前《僵尸肖恩》的启发进行创作的,影片讲述了一种致命病毒席卷了美国,只要被病毒感染,就会变成僵尸。最终,只有几个幸存者没有被感染病毒,决定逃离,获得生存的机会。两个性格迥异的男人凑到了一起,前者对待僵尸的进攻别有心得(制定了一大堆“规则”),后者则是个暴力崇尚者,企图杀光所有的僵尸。在他们逃亡的途中,邂逅了两个精明的女幸存者,他们四人决定一起分享对付僵尸的经验,获得逃生的机会。然而,在杀戮过程中,他们遭遇的危险超出了所有人的想象。按照好莱坞卖座片的类型规律,像《僵尸之地》这种投资仅2000多万美元,没有一线大牌主演的僵尸片,基本都是烂片集中营的当家老大,但此片的成功却来的非常迅猛。这全归功于导演的创意,影片结尾高潮处在游乐园大战僵尸一段,观赏性极强。
  《僵尸之地》的主演杰西·艾森伯格、伍迪·哈里森、艾玛·斯通、阿比盖尔·布莱斯林,目前已确定愿意回归剧组参加续集的拍摄,但剧本仍然在创作之中,预计10年上半年开机。
  电影《僵尸之地》(Zombieland)导演鲁本.费雷斯彻(Ruben Fleischer)近日在接受采访时透露《僵尸之地》续集有望2010年年底正式开拍。
  “我们正在与制片方接触,我们有一些点子它们也非常喜欢。我们肯定会以3D的形式拍摄这部续集。索尼现在已经有自己的3D部门了,我们将在周二(3月2日)参观索尼的3D部门。我知道所有原班人马都很激动回归续集,这将是1部拍摄过程十分精彩有趣的电影。剧本即将开始创作,我希望能在今年年底或者明年年初正式开拍《僵尸之地2》。”


Video
ID : 1
Format : HEVC
Format/Info : High Efficiency Video Coding
Format profile : Main 10@L5.1@High
HDR format : SMPTE ST 2086, HDR10 compatible
Codec ID : V_MPEGH/ISO/HEVC
Duration : 1 h 39 min
Bit rate : 9 774 kb/s
Width : 3 840 pixels
Height : 1 608 pixels
Display aspect ratio : 2.40:1
Frame rate mode : Constant
Frame rate : 23.976 (24000/1001) FPS
Color space : YUV
Chroma subsampling : 4:2:0 (Type 2)
Bit depth : 10 bits
Bits/(Pixel*Frame) : 0.066
Stream size : 6.76 GiB (59%)
Title : Zombieland.Double.Tap.2019.2160p.UHD.BluRay.x265-AAAUHD
Writing library : x265 3.2+29-c5ff72937e9c:[Windows][GCC 9.2.1][64 bit] 10bit
Encoding settings : cpuid=1111039 / frame-threads=5 / numa-pools=32,0 / wpp / no-pmode / no-pme / no-psnr / no-ssim / log-level=2 / input-csp=1 / input-res=3840x1608 / interlace=0 / total-frames=142464 / level-idc=51 / high-tier=1 / uhd-bd=0 / ref=4 / no-allow-non-conformance / repeat-headers / annexb / aud / hrd / info / hash=0 / no-temporal-layers / no-open-gop / min-keyint=1 / keyint=24 / gop-lookahead=0 / bframes=4 / b-adapt=2 / b-pyramid / bframe-bias=0 / rc-lookahead=25 / lookahead-slices=4 / scenecut=40 / hist-scenecut=0 / radl=0 / no-splice / no-intra-refresh / ctu=64 / min-cu-size=8 / rect / no-amp / max-tu-size=32 / tu-inter-depth=1 / tu-intra-depth=1 / limit-tu=0 / rdoq-level=2 / dynamic-rd=0.00 / no-ssim-rd / signhide / no-tskip / nr-intra=0 / nr-inter=0 / no-constrained-intra / no-strong-intra-smoothing / max-merge=3 / limit-refs=3 / limit-modes / me=3 / subme=3 / merange=57 / temporal-mvp / no-frame-dup / no-hme / weightp / no-weightb / no-analyze-src-pics / deblock=-3:-3 / no-sao / no-sao-non-deblock / rd=4 / selective-sao=0 / no-early-skip / rskip / no-fast-intra / no-tskip-fast / no-cu-lossless / no-b-intra / no-splitrd-skip / rdpenalty=0 / psy-rd=2.00 / psy-rdoq=1.00 / no-rd-refine / no-lossless / cbqpoffs=0 / crqpoffs=0 / rc=crf / crf=17.0 / qcomp=0.60 / qpstep=4 / stats-write=0 / stats-read=0 / vbv-maxrate=160000 / vbv-bufsize=160000 / vbv-init=0.9 / crf-max=0.0 / crf-min=0.0 / ipratio=1.40 / pbratio=1.30 / aq-mode=2 / aq-strength=1.00 / cutree / zone-count=0 / no-strict-cbr / qg-size=32 / no-rc-grain / qpmax=69 / qpmin=0 / no-const-vbv / sar=1 / overscan=0 / videoformat=5 / range=0 / colorprim=9 / transfer=16 / colormatrix=9 / chromaloc=1 / chromaloc-top=2 / chromaloc-bottom=2 / display-window=0 / master-display=G(13250,34500)B(7500,3000)R(34000,16000)WP(15635,16450)L(40000000,50) / cll=1001,387 / min-luma=0 / max-luma=1023 / log2-max-poc-lsb=8 / vui-timing-info / vui-hrd-info / slices=1 / no-opt-qp-pps / no-opt-ref-list-length-pps / no-multi-pass-opt-rps / scenecut-bias=0.05 / hist-threshold=0.01 / no-opt-cu-delta-qp / no-aq-motion / hdr10 / hdr10-opt / no-dhdr10-opt / no-idr-recovery-sei / analysis-reuse-level=5 / scale-factor=0 / refine-intra=0 / refine-inter=0 / refine-mv=1 / refine-ctu-distortion=0 / no-limit-sao / ctu-info=0 / no-lowpass-dct / refine-analysis-type=0 / copy-pic=1 / max-ausize-factor=1.0 / no-dynamic-refine / no-single-sei / no-hevc-aq / no-svt / no-field / qp-adaptation-range=1.00 / no-scenecut-aware-qp
Default : Yes
Forced : No
Color range : Limited
Color primaries : BT.2020
Transfer characteristics : PQ
Matrix coefficients : BT.2020 non-constant
Mastering display color primaries : Display P3
Mastering display luminance : min: 0.0050 cd/m2, max: 4000 cd/m2
Maximum Content Light Level : 1001 cd/m2
Maximum Frame-Average Light Level : 387 cd/m2

Audio #1
ID : 2
Format : DTS XLL
Format/Info : Digital Theater Systems
Commercial name : DTS-HD Master Audio
Codec ID : A_DTS
Duration : 1 h 39 min
Bit rate mode : Variable
Bit rate : 5 292 kb/s
Channel(s) : 8 channels
Channel layout : C L R LFE Lb Rb Lss Rss
Sampling rate : 48.0 kHz
Frame rate : 93.750 FPS (512 SPF)
Bit depth : 24 bits
Compression mode : Lossless
Stream size : 3.66 GiB (32%)
Title : English DTS-HD Master Audio (DTS-HD)
Language : English
Default : Yes
Forced : No

Audio #2
ID : 3
Format : DTS
Format/Info : Digital Theater Systems
Codec ID : A_DTS
Duration : 1 h 39 min
Bit rate mode : Constant
Bit rate : 1 509 kb/s
Channel(s) : 6 channels
Channel layout : C L R Ls Rs LFE
Sampling rate : 48.0 kHz
Frame rate : 93.750 FPS (512 SPF)
Bit depth : 24 bits
Compression mode : Lossy
Stream size : 1.04 GiB (9%)
Title : English Digital Theater Systems (DTS)
Language : English
Default : No
Forced : No

Text #1
ID : 4
Format : UTF-8
Codec ID : S_TEXT/UTF8
Codec ID/Info : UTF-8 Plain Text
Duration : 1 h 38 min
Bit rate : 76 b/s
Count of elements : 1414
Stream size : 55.2 KiB (0%)
Title : English
Language : English
Default : No
Forced : No

Text #2
ID : 5
Format : UTF-8
Codec ID : S_TEXT/UTF8
Codec ID/Info : UTF-8 Plain Text
Duration : 1 h 38 min
Bit rate : 84 b/s
Count of elements : 1599
Stream size : 61.1 KiB (0%)
Title : English SDH
Language : English
Default : No
Forced : No

Text #3
ID : 6
Format : PGS
Codec ID : S_HDMV/PGS
Codec ID/Info : Picture based subtitle format used on BDs/HD-DVDs
Duration : 1 h 38 min
Bit rate : 46.4 kb/s
Count of elements : 2844
Stream size : 32.6 MiB (0%)
Title : English PGS
Language : English
Default : No
Forced : No

Text #4
ID : 7
Format : PGS
Codec ID : S_HDMV/PGS
Codec ID/Info : Picture based subtitle format used on BDs/HD-DVDs
Duration : 1 h 38 min
Bit rate : 51.7 kb/s
Count of elements : 3210
Stream size : 36.4 MiB (0%)
Title : English SDH PGS
Language : English
Default : No
Forced : No

Menu
00:00:00.000 : :Chapter 01
00:05:00.675 : :Chapter 02
00:11:08.001 : :Chapter 03
00:15:24.507 : :Chapter 04
00:21:16.192 : :Chapter 05
00:29:15.545 : :Chapter 06
00:36:55.422 : :Chapter 07
00:44:03.015 : :Chapter 08
00:50:12.968 : :Chapter 09
00:57:52.511 : :Chapter 10
01:03:51.870 : :Chapter 11
01:06:50.048 : :Chapter 12
01:10:12.125 : :Chapter 13
01:15:40.119 : :Chapter 14
01:23:45.312 : :Chapter 15
01:29:48.216 : :Chapter 16

磁链: magnet:?xt=urn:btih:c978bd463a897d6734b183e9b7db52286c2d7206&dn=Zombieland.Double.Tap.2019.2160p.UHD.BluRay.X265.10bit.HDR.DTS-X.7.1-AAAUHD&tr=http%3A%2F%2Ftracker.trackerfix.com%3A80%2Fannounce&tr=udp%3A%2F%2F9.rarbg.me%3A2730&tr=udp%3A%2F%2F9.rarbg.to%3A2720
上传的附件:

本帖子中包含更多资源

您需要 登录 才可以下载或查看,没有帐号?立即注册

x

2

主题

3万

帖子

4万

积分

升龙霸·VIP

Rank: 22Rank: 22Rank: 22Rank: 22

积分
42228

龙网爱心勋章龙网VIP·银牌

发表于 2020-1-11 15:36:56 | 显示全部楼层
谢谢楼主发片

0

主题

243

帖子

565

积分

龙的传人

Rank: 13Rank: 13Rank: 13

积分
565
发表于 2020-1-17 12:48:12 | 显示全部楼层
thinks。。。。。

21

主题

6741

帖子

8542

积分

海龙王

Rank: 25Rank: 25Rank: 25Rank: 25Rank: 25

积分
8542
发表于 2020-1-22 14:11:16 | 显示全部楼层
谢谢楼主分享大片

0

主题

24

帖子

43

积分

泡泡龙

Rank: 5Rank: 5Rank: 5

积分
43
发表于 2020-1-26 21:14:20 | 显示全部楼层
谢谢楼主发片

24

主题

147

帖子

240

积分

龙少爷

Rank: 10Rank: 10

积分
240
发表于 2020-1-29 20:39:31 | 显示全部楼层
谢谢分享辛苦了

1

主题

827

帖子

1097

积分

神龙

Rank: 15Rank: 15Rank: 15

积分
1097
发表于 5 天前 | 显示全部楼层
谢谢楼主发片

0

主题

8

帖子

16

积分

泡泡龙

Rank: 5Rank: 5Rank: 5

积分
16
发表于 4 天前 | 显示全部楼层
感谢楼主分享,学习,学习
您需要登录后才可以回帖 登录 | 立即注册

本版积分规则

小黑屋|梦幻天堂·龙网

GMT+8, 2020-2-17 11:49 , Processed in 0.126651 second(s), 21 queries , Gzip On.

Powered by Discuz! X3.2

© 2001-2013 Comsenz Inc.

快速回复 返回顶部 返回列表