梦幻天堂·龙网

 找回密码
 立即注册
查看: 278|回复: 7

[原盘remux] [剧情]黑水风暴.2019.1080p.BluRay.REMUX.AVC.DTS-HD.MA.5.1-FGT 36.24 GB

[复制链接]

6548

主题

8645

帖子

1万

积分

神界龙王

Rank: 30Rank: 30Rank: 30Rank: 30

积分
18541

龙网爱心勋章

发表于 2020-2-23 17:45:51 | 显示全部楼层 |阅读模式

导演: 托德·海因斯
编剧: 纳撒尼尔·里奇 / 马里奥·科雷亚 / 马修·迈克尔·卡纳汉
主演: 马克·鲁弗洛 / 安妮·海瑟薇 / 蒂姆·罗宾斯 / 比尔·坎普 / 维克多·加博 / 比尔·普尔曼 / 梅尔·温宁汉姆 / 威廉·杰克森·哈珀 / 路易莎·克劳瑟 / 凯文·克劳利 / 丹尼尔·R·希尔 / 王明 / 西尼·迈尔斯 / 马克·霍克尔 / 考特尼·德科斯基 / 斯嘉丽·希克斯 / 布莱恩·加拉格尔 / 约翰·纽伯格 / 莱曼·陈 / 丹妮丝·达·维拉 / 杰弗里·格罗弗 / 泰里·克拉克 / 杰夫·福尔克 / 温·赖克特 / 乔恩·奥斯贝克 / 理查德·杜恩 / 迈克尔·海尼 / 大卫·皮廷格
类型: 剧情
制片国家/地区: 美国
语言: 英语
上映日期: 2019-11-22(美国点映) / 2019-12-06(美国)
片长: 126分钟
又名: 追击黑水真相(港) / 黑水风暴(台) / 黑暗水域 / 空转 / 演习 / Dry Run / The Lawyer Who Became DuPont's Worst Nightmare
IMDb链接: tt9071322


黑水风暴剧情简介 · · · · · ·
  基于Nathaniel Rich在《纽约时报》上发表的文章《The Lawyer Who Became DuPont’s Worst Nightmare》,围绕罗伯特·比洛特展开,他担任辩护律师长达8年之久,他对化工巨头杜邦公司提起了环境诉讼,这场官司揭露了几十年来杜邦公司化学污染的历史。


黑水风暴获奖情况
第24届金卫星奖  (2020)
电影部门 剧情片最佳男主角(提名) 马克·鲁弗洛
电影部门 最佳改编剧本(提名) 马修·迈克尔·卡纳汉 / 马里奥·科雷亚 / 纳撒尼尔·里奇





黑水风暴.Dark.Waters.2019.1080p.BluRay.REMUX.AVC.DTS-HD.MA.5.1-FGT 36.24 GB
Video
ID : 1
Format : AVC
Format/Info : Advanced Video Codec
Format profile : High@L4.1
Format settings : CABAC / 4 Ref Frames
Format settings, CABAC : Yes
Format settings, Reference frames : 4 frames
Format settings, GOP : M=3, N=12
Codec ID : V_MPEG4/ISO/AVC
Duration : 2 h 7 min
Bit rate mode : Variable
Bit rate : 35.9 Mb/s
Maximum bit rate : 40.0 Mb/s
Width : 1 920 pixels
Height : 1 080 pixels
Display aspect ratio : 16:9
Frame rate mode : Constant
Frame rate : 23.976 (24000/1001) FPS
Color space : YUV
Chroma subsampling : 4:2:0
Bit depth : 8 bits
Scan type : Progressive
Bits/(Pixel*Frame) : 0.722
Stream size : 31.9 GiB (88%)
Title : Dark.Waters.2019.1080p.BluRay.REMUX.AVC.DTS-HD.MA.5.1-FGT
Language : English
Default : No
Forced : No

Audio #1
ID : 2
Format : DTS XLL
Format/Info : Digital Theater Systems
Commercial name : DTS-HD Master Audio
Codec ID : A_DTS
Duration : 2 h 7 min
Bit rate mode : Variable
Bit rate : 3 117 kb/s
Channel(s) : 6 channels
Channel layout : C L R Ls Rs LFE
Sampling rate : 48.0 kHz
Frame rate : 93.750 FPS (512 SPF)
Bit depth : 24 bits
Compression mode : Lossless
Stream size : 2.77 GiB (8%)
Title : Dark.Waters.2019.1080p.BluRay.REMUX.AVC.DTS-HD.MA.5.1-FGT
Language : English
Default : Yes
Forced : No

Audio #2
ID : 3
Format : DTS
Format/Info : Digital Theater Systems
Codec ID : A_DTS
Duration : 2 h 7 min
Bit rate mode : Constant
Bit rate : 768 kb/s
Channel(s) : 6 channels
Channel layout : C L R Ls Rs LFE
Sampling rate : 48.0 kHz
Frame rate : 93.750 FPS (512 SPF)
Bit depth : 24 bits
Compression mode : Lossy
Stream size : 698 MiB (2%)
Title : Dark.Waters.2019.1080p.BluRay.REMUX.AVC.DTS-HD.MA.5.1-FGT
Language : Spanish
Default : No
Forced : No

Audio #3
ID : 4
Format : DTS
Format/Info : Digital Theater Systems
Codec ID : A_DTS
Duration : 2 h 7 min
Bit rate mode : Constant
Bit rate : 768 kb/s
Channel(s) : 6 channels
Channel layout : C L R Ls Rs LFE
Sampling rate : 48.0 kHz
Frame rate : 93.750 FPS (512 SPF)
Bit depth : 24 bits
Compression mode : Lossy
Stream size : 698 MiB (2%)
Title : Dark.Waters.2019.1080p.BluRay.REMUX.AVC.DTS-HD.MA.5.1-FGT
Language : French
Default : No
Forced : No

Audio #4
ID : 5
Format : AC-3
Format/Info : Audio Coding 3
Commercial name : Dolby Digital
Codec ID : A_AC3
Duration : 2 h 7 min
Bit rate mode : Constant
Bit rate : 192 kb/s
Channel(s) : 2 channels
Channel layout : L R
Sampling rate : 48.0 kHz
Frame rate : 31.250 FPS (1536 SPF)
Bit depth : 16 bits
Compression mode : Lossy
Stream size : 174 MiB (0%)
Title : Dark.Waters.2019.1080p.BluRay.REMUX.AVC.DTS-HD.MA.5.1-FGT
Language : English
Service kind : Complete Main
Default : No
Forced : No

Text #1
ID : 6
Format : UTF-8
Codec ID : S_TEXT/UTF8
Codec ID/Info : UTF-8 Plain Text
Duration : 2 h 3 min
Bit rate : 70 b/s
Count of elements : 1799
Stream size : 63.8 KiB (0%)
Title : English-SRT
Language : English
Default : Yes
Forced : No

Text #2
ID : 7
Format : PGS
Muxing mode : zlib
Codec ID : S_HDMV/PGS
Codec ID/Info : Picture based subtitle format used on BDs/HD-DVDs
Duration : 2 h 3 min
Bit rate : 52.6 kb/s
Count of elements : 3966
Stream size : 46.5 MiB (0%)
Title : English-PGS
Language : English
Default : No
Forced : No

Text #3
ID : 8
Format : PGS
Muxing mode : zlib
Codec ID : S_HDMV/PGS
Codec ID/Info : Picture based subtitle format used on BDs/HD-DVDs
Duration : 2 h 6 min
Bit rate : 43.8 kb/s
Count of elements : 3650
Stream size : 39.5 MiB (0%)
Title : Spanish-PGS
Language : Spanish
Default : No
Forced : No

Text #4
ID : 9
Format : PGS
Muxing mode : zlib
Codec ID : S_HDMV/PGS
Codec ID/Info : Picture based subtitle format used on BDs/HD-DVDs
Duration : 2 h 5 min
Bit rate : 51.0 kb/s
Count of elements : 3646
Stream size : 45.9 MiB (0%)
Title : French-PGS
Language : French
Default : No
Forced : No

Text #5
ID : 10
Format : PGS
Muxing mode : zlib
Codec ID : S_HDMV/PGS
Codec ID/Info : Picture based subtitle format used on BDs/HD-DVDs
Duration : 2 h 2 min
Bit rate : 341 b/s
Count of elements : 34
Stream size : 308 KiB (0%)
Title : Spanish-FORCED-PGS
Language : Spanish
Default : No
Forced : No

Text #6
ID : 11
Format : PGS
Muxing mode : zlib
Codec ID : S_HDMV/PGS
Codec ID/Info : Picture based subtitle format used on BDs/HD-DVDs
Duration : 2 h 5 min
Bit rate : 1 446 b/s
Count of elements : 98
Stream size : 1.30 MiB (0%)
Title : French-FORCED-PGS
Language : French
Default : No
Forced : No

Menu
00:00:00.000 : en:Chapter 01
00:10:08.190 : en:Chapter 02
00:18:18.430 : en:Chapter 03
00:28:20.448 : en:Chapter 04
00:36:48.956 : en:Chapter 05
00:44:45.891 : en:Chapter 06
00:50:17.055 : en:Chapter 07
01:04:17.395 : en:Chapter 08
01:08:46.080 : en:Chapter 09
01:17:23.639 : en:Chapter 10
01:23:51.151 : en:Chapter 11
01:25:31.668 : en:Chapter 12
01:31:40.995 : en:Chapter 13
01:36:14.977 : en:Chapter 14
01:38:55.971 : en:Chapter 15
01:42:27.391 : en:Chapter 16
01:45:11.179 : en:Chapter 17
01:50:32.083 : en:Chapter 18
02:00:16.584 : en:Chapter 19
02:02:02.565 : en:Chapter 20



磁力链接:
magnet:?xt=urn:btih:8f16e775afb9ead07ff0ecde5fa7b28d654067be&dn=Dark.Waters.2019.1080p.BluRay.REMUX.AVC.DTS-HD.MA.5.1-FGT&tr=http%3A%2F%2Ftracker.trackerfix.com%3A80%2Fannounce&tr=udp%3A%2F%2F9.rarbg.me%3A2780&tr=udp%3A%2F%2F9.rarbg.to%3A2760

本帖子中包含更多资源

您需要 登录 才可以下载或查看,没有帐号?立即注册

x

21

主题

1万

帖子

1万

积分

神界龙王

Rank: 30Rank: 30Rank: 30Rank: 30

积分
14159
发表于 2020-2-24 11:26:32 | 显示全部楼层
谢谢楼主分享精彩影片,辛苦了

2

主题

3万

帖子

4万

积分

升龙霸·VIP

Rank: 22Rank: 22Rank: 22Rank: 22

积分
43680

龙网爱心勋章龙网VIP·银牌

发表于 2020-2-24 23:24:22 | 显示全部楼层
谢谢楼主发片

1

主题

1162

帖子

1504

积分

神龙

Rank: 15Rank: 15Rank: 15

积分
1504
发表于 2020-2-25 17:36:29 | 显示全部楼层
这部电影的评价还是很高的

1

主题

1796

帖子

2343

积分

赤血神龙

Rank: 20Rank: 20Rank: 20Rank: 20

积分
2343
发表于 2020-3-9 01:04:16 | 显示全部楼层
感谢楼主的分享

0

主题

2196

帖子

977

积分

龙的传人

Rank: 13Rank: 13Rank: 13

积分
977
发表于 2020-3-9 14:13:30 | 显示全部楼层
DDDDDDDDDDDDDDDDDDDD

0

主题

40

帖子

49

积分

泡泡龙

Rank: 5Rank: 5Rank: 5

积分
49
发表于 2020-3-11 09:58:16 | 显示全部楼层
感谢楼主的分享!

0

主题

10

帖子

24

积分

泡泡龙

Rank: 5Rank: 5Rank: 5

积分
24
发表于 2020-3-16 09:13:20 | 显示全部楼层
艺术片,时间长着呢,有文化修养的才看得下去
您需要登录后才可以回帖 登录 | 立即注册

本版积分规则

小黑屋|梦幻天堂·龙网

GMT+8, 2020-4-2 15:51 , Processed in 0.162132 second(s), 21 queries , Gzip On.

Powered by Discuz! X3.2

© 2001-2013 Comsenz Inc.

快速回复 返回顶部 返回列表