梦幻天堂·龙网

 找回密码
 立即注册
查看: 320|回复: 4

[原盘remux] [动作]霹雳娇娃.2019.2160p.AMZN.WEBRip.x265.10bit.SDR.DDP5.1-AJP69 24.72 GB

[复制链接]

6548

主题

8645

帖子

1万

积分

神界龙王

Rank: 30Rank: 30Rank: 30Rank: 30

积分
18541

龙网爱心勋章

发表于 2020-2-23 17:48:49 | 显示全部楼层 |阅读模式

导演: 伊丽莎白·班克斯
编剧: 伊丽莎白·班克斯 / 埃文·斯彼里奥托普洛斯 / 大卫·奥伯恩
主演: 克里斯汀·斯图尔特 / 娜奥米·斯科特 / 埃拉·巴林斯卡 / 伊丽莎白·班克斯 / 帕特里克·斯图尔特 / 山姆·克拉弗林 / 乔纳森·塔克 / 奈特·法松 / 诺亚·琴蒂内奥 / 路易斯·赫拉尔多·门德斯 / 杰曼·翰苏 / 吴育刚 / 利维娅‧马特斯 / 莎拉·贝纳尼 / 罗伯特‧马瑟 / 丹尼尔·里索 / 穆拉利·佩鲁马尔 / 杰奎琳·史密斯 / 海莉·斯坦菲尔德 / 丽丽·莱因哈特 / 拉弗恩·考克斯 / 丹尼卡·帕翠克 / 龙达·鲁西
类型: 动作 / 冒险
官方网站: www.charliesangels.movie
制片国家/地区: 美国
语言: 英语
上映日期: 2019-11-15(美国/中国大陆)
片长: 119分钟
又名: 查理的天使 / 新霹雳娇娃 / 霹雳天使 / 神探俏嬌娃(港)
IMDb链接: tt5033998


霹雳娇娃的剧情简介 · · · · · ·
  讲述了新一代火辣美女天使克里斯汀·斯图尔特、娜奥米·斯科特、埃拉·巴林斯卡霸气组队强势打击危险势力的故事。本片由好莱坞实力派导演及演员伊丽莎白·班克斯执导,高空跳伞、狂野飙车、拳脚肉搏、激燃枪战等惊险动作场面接连不断,肾上腺素飙升。三大天使特工技能高超,大玩变身诱惑上演温柔杀机。


霹雳娇娃 Charlie's Angels 获奖情况
第24届金卫星奖  (2020)
电影部门 最佳原创歌曲(提名)





霹雳娇娃.Charlies.Angels.2019.2160p.AMZN.WEBRip.x265.10bit.SDR.DDP5.1-AJP69 24.72 GB
Video
ID : 1
Format : HEVC
Format/Info : High Efficiency Video Coding
Format profile : Main 10@L5.1@High
Codec ID : V_MPEGH/ISO/HEVC
Duration : 1 h 58 min
Bit rate : 29.2 Mb/s
Width : 3 840 pixels
Height : 1 600 pixels
Display aspect ratio : 2.40:1
Frame rate mode : Constant
Frame rate : 23.976 (24000/1001) FPS
Color space : YUV
Chroma subsampling : 4:2:0
Bit depth : 10 bits
Bits/(Pixel*Frame) : 0.198
Stream size : 24.2 GiB (98%)
Writing library : x265 3.2+38-fdbd4e4a2aff:[Windows][GCC 9.2.1][64 bit] 10bit
Encoding settings : cpuid=1111039 / frame-threads=4 / numa-pools=24 / wpp / no-pmode / no-pme / no-psnr / no-ssim / log-level=2 / input-csp=1 / input-res=3840x1600 / interlace=0 / total-frames=170444 / level-idc=51 / high-tier=1 / uhd-bd=0 / ref=5 / no-allow-non-conformance / repeat-headers / annexb / aud / hrd / info / hash=0 / no-temporal-layers / open-gop / min-keyint=23 / keyint=250 / gop-lookahead=0 / bframes=8 / b-adapt=2 / b-pyramid / bframe-bias=0 / rc-lookahead=40 / lookahead-slices=4 / scenecut=40 / hist-scenecut=0 / radl=0 / no-splice / no-intra-refresh / ctu=64 / min-cu-size=8 / no-rect / no-amp / max-tu-size=32 / tu-inter-depth=4 / tu-intra-depth=4 / limit-tu=4 / rdoq-level=2 / dynamic-rd=0.00 / no-ssim-rd / signhide / no-tskip / nr-intra=0 / nr-inter=0 / no-constrained-intra / strong-intra-smoothing / max-merge=4 / limit-refs=3 / limit-modes / me=3 / subme=5 / merange=57 / temporal-mvp / no-frame-dup / no-hme / weightp / weightb / no-analyze-src-pics / deblock=-3:-3 / no-sao / no-sao-non-deblock / rd=4 / selective-sao=0 / no-early-skip / rskip / no-fast-intra / no-tskip-fast / no-cu-lossless / b-intra / no-splitrd-skip / rdpenalty=0 / psy-rd=2.00 / psy-rdoq=4.00 / no-rd-refine / no-lossless / cbqpoffs=0 / crqpoffs=0 / rc=crf / crf=19.0 / qcomp=0.60 / qpstep=4 / stats-write=0 / stats-read=0 / vbv-maxrate=160000 / vbv-bufsize=160000 / vbv-init=0.9 / crf-max=0.0 / crf-min=0.0 / ipratio=1.30 / pbratio=1.20 / aq-mode=1 / aq-strength=0.80 / no-cutree / zone-count=0 / no-strict-cbr / qg-size=32 / no-rc-grain / qpmax=69 / qpmin=0 / no-const-vbv / sar=1 / overscan=0 / videoformat=5 / range=0 / colorprim=1 / transfer=1 / colormatrix=1 / chromaloc=0 / display-window=0 / cll=0,0 / min-luma=0 / max-luma=1023 / log2-max-poc-lsb=8 / vui-timing-info / vui-hrd-info / slices=1 / no-opt-qp-pps / no-opt-ref-list-length-pps / no-multi-pass-opt-rps / scenecut-bias=0.05 / hist-threshold=0.01 / no-opt-cu-delta-qp / no-aq-motion / no-hdr10 / no-hdr10-opt / no-dhdr10-opt / no-idr-recovery-sei / analysis-reuse-level=0 / analysis-save-reuse-level=0 / analysis-load-reuse-level=0 / scale-factor=0 / refine-intra=0 / refine-inter=0 / refine-mv=1 / refine-ctu-distortion=0 / no-limit-sao / ctu-info=0 / no-lowpass-dct / refine-analysis-type=0 / copy-pic=1 / max-ausize-factor=1.0 / no-dynamic-refine / no-single-sei / no-hevc-aq / no-svt / no-field / qp-adaptation-range=1.00 / no-scenecut-aware-qpconformance-window-offsets / right=0 / bottom=0
Default : Yes
Forced : No
Color range : Limited
Color primaries : BT.709
Transfer characteristics : BT.709
Matrix coefficients : BT.709

Audio
ID : 2
Format : E-AC-3
Format/Info : Enhanced AC-3
Commercial name : Dolby Digital Plus
Codec ID : A_EAC3
Duration : 1 h 58 min
Bit rate mode : Constant
Bit rate : 640 kb/s
Channel(s) : 6 channels
Channel layout : L R C LFE Ls Rs
Sampling rate : 48.0 kHz
Frame rate : 31.250 FPS (1536 SPF)
Compression mode : Lossy
Stream size : 542 MiB (2%)
Language : English
Service kind : Complete Main
Default : Yes
Forced : No

Text #1
ID : 3
Format : UTF-8
Codec ID : S_TEXT/UTF8
Codec ID/Info : UTF-8 Plain Text
Duration : 1 h 55 min
Bit rate : 68 b/s
Count of elements : 1942
Stream size : 57.9 KiB (0%)
Language : English
Default : No
Forced : No

Text #2
ID : 4
Format : UTF-8
Codec ID : S_TEXT/UTF8
Codec ID/Info : UTF-8 Plain Text
Duration : 1 h 55 min
Bit rate : 73 b/s
Count of elements : 2256
Stream size : 62.4 KiB (0%)
Title : SDH
Language : English
Default : No
Forced : No

Menu
00:00:00.000 : en:Studio Logos
00:00:36.000 : en:Women deserve all the same opportunities
00:06:32.000 : en:A meeting with Elena's boss
00:10:26.000 : en:Bosley's retirement
00:13:56.000 : enower demonstration
00:16:43.000 : en:A new assignment
00:26:22.000 : en:Regrouping
00:31:51.000 : en:Gathering intel
00:43:54.000 : en:A plan to retrieve Calisto
00:51:22.000 : enreparing for the mission
00:54:57.000 : en:Arriving in Instanbul
01:01:17.000 : en:A day at the races
01:08:36.000 : en:A meeting with the buyer
01:20:13.000 : en:Something isn't right
01:30:46.000 : en:Crashing a party
01:42:20.000 : en:Send the love
01:48:31.000 : en:End Credits



磁力链接:
magnet:?xt=urn:btih:00f9077a243c00df7211b9bbd10575e7e22893af&dn=Charlies.Angels.2019.2160p.AMZN.WEBRip.x265.10bit.SDR.DDP5.1-AJP69&tr=http%3A%2F%2Ftracker.trackerfix.com%3A80%2Fannounce&tr=udp%3A%2F%2F9.rarbg.me%3A2750&tr=udp%3A%2F%2F9.rarbg.to%3A2780

本帖子中包含更多资源

您需要 登录 才可以下载或查看,没有帐号?立即注册

x

21

主题

1万

帖子

1万

积分

神界龙王

Rank: 30Rank: 30Rank: 30Rank: 30

积分
14159
发表于 2020-2-24 11:26:03 | 显示全部楼层
谢谢楼主分享精彩影片,辛苦了

2

主题

3万

帖子

4万

积分

升龙霸·VIP

Rank: 22Rank: 22Rank: 22Rank: 22

积分
43680

龙网爱心勋章龙网VIP·银牌

发表于 2020-2-24 23:23:58 | 显示全部楼层
谢谢楼主发片

1

主题

1162

帖子

1504

积分

神龙

Rank: 15Rank: 15Rank: 15

积分
1504
发表于 2020-2-26 08:20:57 | 显示全部楼层
这种动作喜剧很受人喜欢

1

主题

1796

帖子

2343

积分

赤血神龙

Rank: 20Rank: 20Rank: 20Rank: 20

积分
2343
发表于 2020-3-9 01:03:52 | 显示全部楼层
感谢楼主的分享
您需要登录后才可以回帖 登录 | 立即注册

本版积分规则

小黑屋|梦幻天堂·龙网

GMT+8, 2020-4-2 14:11 , Processed in 0.130304 second(s), 21 queries , Gzip On.

Powered by Discuz! X3.2

© 2001-2013 Comsenz Inc.

快速回复 返回顶部 返回列表