梦幻天堂·龙网

 找回密码
 立即注册
查看: 395|回复: 4

[原盘remux] [喜剧]美女与野兽.1991.iNTERNAL.HDR.2160p.WEB.H265-WATCHER 10.24 GB

[复制链接]

6548

主题

8645

帖子

1万

积分

神界龙王

Rank: 30Rank: 30Rank: 30Rank: 30

积分
18541

龙网爱心勋章

发表于 2020-2-23 17:50:04 | 显示全部楼层 |阅读模式

导演: 加里·特洛斯达勒 / 柯克·维斯
编剧: 琳达·伍尔芙顿 / 罗杰·阿勒斯 / 布兰达∙查普曼 / 伯尼·马丁森 / 布瑞恩·皮门托尔 / 乔·兰福特 / 凯利·阿斯博瑞 / 克里斯·桑德斯 / 凯文·哈基 / 布鲁斯·伍德赛德 / 汤姆·埃勒里 / 罗伯特·伦塞
主演: 佩吉·奥哈拉 / 罗比·本森 / 理查德·怀特 / 杰里·奥尔巴赫 / 戴维·奥格登·施蒂尔斯 / 更多...
类型: 喜剧 / 爱情 / 动画 / 歌舞 / 奇幻
制片国家/地区: 美国
语言: 英语 / 法语
上映日期: 1991-09-29(纽约电影节) / 1991-11-22(美国) / 2012-01-13(美国)
片长: 84分钟 / 91分钟(特别版)
又名: 美女与野兽3D
IMDb链接: tt0101414


美女与野兽的剧情简介 · · · · · ·
  贝儿美丽善良,与老父亲一起住在一个宁静的小村庄里。一次,父亲不小心闯进了野兽的领地,被囚禁在野兽的城堡里。为了救出亲爱的父亲,贝儿只身犯险,答应与野兽同居于古堡而换回了父亲。野兽的城堡华丽而充满奇幻色彩,有充满绅士风度的烛台先生,和蔼亲切的茶壶妈妈,还有可爱的小茶壶宝宝。然而,贝儿生活的并不愉快,一心想念着她的父亲。
  终于,贝儿找到了逃走的机会。可是却遇到了凶狠的狼群。危难关头,野兽及时出现,解救了贝儿,自己却受了伤。贝儿心存感动,细心照顾野兽。相处的过程中,二人互相了解,野兽也被感化,慢慢变得温和,学会去爱。朝夕相处,日生情愫。也许,野兽也可以是英勇的守护骑士,温雅的白马王子。


美女与野兽 Beauty and the Beast 获奖情况
第64届奥斯卡金像奖  (1992)
最佳影片(提名) 唐·翰
最佳音响(提名) David J. Hudson / Doc Kane / Mel Metcalfe / 特里·波特
最佳原创配乐 艾伦·曼肯
最佳原创歌曲 霍华德·阿什曼 / 艾伦·曼肯
最佳原创歌曲(提名) 霍华德·阿什曼 / 艾伦·曼肯
第46届英国电影学院奖  (1993)
电影奖 最佳特殊视觉效果(提名) Randy Fullmer
电影奖 最佳原创音乐(提名) 霍华德·阿什曼 / 艾伦·曼肯
第20届动画安妮奖  (1992)
最佳动画长片
最佳个人成就 格兰·基恩





美女与野兽.Beauty.And.The.Beast.1991.iNTERNAL.HDR.2160p.WEB.H265-WATCHER 10.24 GB
Video
ID : 1
Format : HEVC
Format/Info : High Efficiency Video Coding
Format profile : Main 10@L5@High
Codec ID : V_MPEGH/ISO/HEVC
Duration : 1 h 25 min
Bit rate : 16.3 Mb/s
Width : 3 840 pixels
Height : 2 160 pixels
Display aspect ratio : 16:9
Frame rate mode : Constant
Frame rate : 23.976 (24000/1001) FPS
Color space : YUV
Chroma subsampling : 4:2:0
Bit depth : 10 bits
Bits/(Pixel*Frame) : 0.082
Stream size : 9.78 GiB (95%)
Default : Yes
Forced : No
Color range : Limited
Color primaries : BT.2020
Transfer characteristics : PQ
Matrix coefficients : BT.2020 non-constant

Audio
ID : 2
Format : E-AC-3 JOC
Format/Info : Enhanced AC-3 with Joint Object Coding
Commercial name : Dolby Digital Plus with Dolby Atmos
Codec ID : A_EAC3
Duration : 1 h 25 min
Bit rate mode : Constant
Bit rate : 768 kb/s
Channel(s) : 6 channels
Channel layout : L R C LFE Ls Rs
Sampling rate : 48.0 kHz
Frame rate : 31.250 FPS (1536 SPF)
Compression mode : Lossy
Stream size : 471 MiB (4%)
Title : English
Language : English
Service kind : Complete Main
Default : Yes
Forced : No
Complexity index : 16
Number of dynamic objects : 15
Bed channel count : 1 channel
Bed channel configuration : LFE



磁力链接:
magnet:?xt=urn:btih:52dc626097739e1e4f4cf0fa7060eb4f2493445c&dn=Beauty.And.The.Beast.1991.iNTERNAL.HDR.2160p.WEB.H265-WATCHER&tr=http%3A%2F%2Ftracker.trackerfix.com%3A80%2Fannounce&tr=udp%3A%2F%2F9.rarbg.me%3A2760&tr=udp%3A%2F%2F9.rarbg.to%3A2770

本帖子中包含更多资源

您需要 登录 才可以下载或查看,没有帐号?立即注册

x

1

主题

1796

帖子

2343

积分

赤血神龙

Rank: 20Rank: 20Rank: 20Rank: 20

积分
2343
发表于 2020-2-24 04:13:02 | 显示全部楼层
谢谢分享,温暖好电影。

21

主题

1万

帖子

1万

积分

神界龙王

Rank: 30Rank: 30Rank: 30Rank: 30

积分
14159
发表于 2020-2-24 11:25:51 | 显示全部楼层
谢谢楼主分享精彩影片,辛苦了

2

主题

3万

帖子

4万

积分

升龙霸·VIP

Rank: 22Rank: 22Rank: 22Rank: 22

积分
43680

龙网爱心勋章龙网VIP·银牌

发表于 2020-2-24 23:23:40 | 显示全部楼层
谢谢楼主发片

1

主题

1796

帖子

2343

积分

赤血神龙

Rank: 20Rank: 20Rank: 20Rank: 20

积分
2343
发表于 2020-3-9 01:03:40 | 显示全部楼层
感谢楼主的分享
您需要登录后才可以回帖 登录 | 立即注册

本版积分规则

小黑屋|梦幻天堂·龙网

GMT+8, 2020-4-2 14:56 , Processed in 0.145065 second(s), 21 queries , Gzip On.

Powered by Discuz! X3.2

© 2001-2013 Comsenz Inc.

快速回复 返回顶部 返回列表