梦幻天堂·龙网

 找回密码
 立即注册
查看: 646|回复: 7

[1080p] [剧情]雌猫们.2017.JAPANESE.1080p.BluRay.x264-iKiW 6.56 GB 日语简繁中字

[复制链接]

6548

主题

8645

帖子

1万

积分

神界龙王

Rank: 30Rank: 30Rank: 30Rank: 30

积分
18541

龙网爱心勋章

发表于 2020-2-23 17:51:19 | 显示全部楼层 |阅读模式

导演: 白石和弥
编剧: 白石和弥
主演: 井端珠里 / 真上五月 / 美知枝 / 音尾琢真 / 郭智博 / 村田秀亮 / 吉泽健 / 白川和子 / 松永拓野 / 吉村界人 / 米村亮太朗 / 宇田高木 / 野中隆光 / 山咲美花 / 天马春 / 久保田和靖
类型: 情色
制片国家/地区: 日本
语言: 日语
上映日期: 2017-01-14(日本)
片长: 84分钟
又名: 雌猫们之夜(港) / 母猫(台) / Dawn of the Felines
IMDb链接: tt6000140


雌猫们的剧情简介 · · · · · ·
  电影公司「日活」创业百年,最具代表性的一个品牌,是在七、 八十年代风靡一时的「粉红映画」(日文叫Roman Porno,海外称之为Pink Movie),亦即是浪漫化的成人电影。今年适逢「粉红映画」诞生四十五周年,「日活」特别筹划了「Roman Porno Reboot」计划,找来园子温、行定勳、中田秀夫、盐田明彦、白石和弥五位名导操刀,各拍一部粉红片。五人要跟足过往的游戏规则:每十分钟要有一场情慾戏、片长必须在七十至八十分钟之间、一律只有很低的製作费、要一星期内完成拍摄,其他一切自由发挥。结果证明五位导演不但玩得起,而且还玩得极有一手。
  盐田的《湿濡的女人》最先曝光,重新演绎「粉红」经典《湿濡的恋人们》,讲野性少女在海边故意湿身,然后贱价卖身给路过的男人。白石执导的《雌猫们》同样向经典《雌猫们之夜》致敬,新版搬到池袋街头上演,讲在网吧打趸的难民、单亲妈妈和不育人妻在夜间浪荡的性活动。行定勳的《撩乱的裸舞曲》则是原创故事,谐星板尾创路演脑闭塞导演,陷入了女色陷阱,搞到身败名裂。《午夜凶铃》导演中田秀夫初战成人世界,打动了九十后女优飞鸟凛全裸演出女同志故事《白百合》。向来出位的园子温就尽展其反叛本色,以毒攻毒,用色情反色情拍了《Antiporno》,找来前AKB成员富手麻妙首次全裸主演。
  「粉红映画」之所以留名几十年,是因为「淫」得有道,成本低但剧本扎实,而且是当时年轻新导磨练技艺的修罗场,《礼仪师》奥斯卡导演泷田洋二郎、《谈谈情,跳跳舞》的周防正行、《死亡笔记》的金子修介、《后乐园》已故导演森田芳光等大导出道时都拍过粉红片。停产了廿八年的粉红系列今次一口气推出五片,别具意义,将陆续于十一月底起在日本上映。





雌猫们.Dawn.of.The.Felines.2017.JAPANESE.1080p.BluRay.x264-iKiW 6.56 GB 日语简繁中字
Video
ID : 1
Format : AVC
Format/Info : Advanced Video Codec
Format profile : High@L4.1
Format settings : CABAC / 5 Ref Frames
Format settings, CABAC : Yes
Format settings, Reference frames : 5 frames
Codec ID : V_MPEG4/ISO/AVC
Duration : 1 h 25 min
Bit rate : 10.6 Mb/s
Width : 1 920 pixels
Height : 818 pixels
Display aspect ratio : 2.35:1
Frame rate mode : Constant
Frame rate : 23.976 (24000/1001) FPS
Color space : YUV
Chroma subsampling : 4:2:0
Bit depth : 8 bits
Scan type : Progressive
Bits/(Pixel*Frame) : 0.281
Stream size : 6.30 GiB (96%)
Writing library : x264 core 129 r2245+704+36 8e61944 tMod+MixAQ [8-bit@4:2:0 X86_64]
Encoding settings : cabac=1 / ref=5 / deblock=1:-3:-3 / analyse=0x3:0x133 / me=umh / subme=11 / psy=1 / fade_compensate=0.00 / psy_rd=1.05:0.10 / mixed_ref=1 / me_range=64 / chroma_me=1 / trellis=2 / 8x8dct=1 / cqm=0 / deadzone=21,11 / fast_pskip=0 / chroma_qp_offset=-3 / threads=18 / lookahead_threads=3 / sliced_threads=0 / nr=0 / decimate=0 / interlaced=0 / bluray_compat=0 / constrained_intra=0 / fgo=0 / bframes=10 / b_pyramid=2 / b_adapt=2 / b_bias=0 / direct=3 / weightb=1 / open_gop=0 / weightp=2 / keyint=250 / keyint_min=23 / scenecut=40 / intra_refresh=0 / rc=2pass / mbtree=0 / bitrate=10600 / ratetol=1.0 / qcomp=0.70 / qpmin=0 / qpmax=69 / qpstep=4 / cplxblur=20.0 / qblur=0.5 / ip_ratio=1.40 / pb_ratio=1.30 / aq=1 / aq-strength=0.90 / aq-sensitivity=10.00 / aq-ifactor=1.00 / aq-pfactor=1.00 / aq-bfactor=1.00 / aq2=0
Language : Japanese
Default : Yes
Forced : No

Audio
ID : 2
Format : AC-3
Format/Info : Audio Coding 3
Commercial name : Dolby Digital
Codec ID : A_AC3
Duration : 1 h 25 min
Bit rate mode : Constant
Bit rate : 448 kb/s
Channel(s) : 6 channels
Channel layout : L R C LFE Ls Rs
Sampling rate : 48.0 kHz
Frame rate : 31.250 FPS (1536 SPF)
Bit depth : 16 bits
Compression mode : Lossy
Stream size : 272 MiB (4%)
Language : Japanese
Service kind : Complete Main
Default : Yes
Forced : No

Text #1
ID : 3
Format : UTF-8
Codec ID : S_TEXT/UTF8
Codec ID/Info : UTF-8 Plain Text
Duration : 1 h 24 min
Bit rate : 30 b/s
Count of elements : 887
Stream size : 19.1 KiB (0%)
Language : English
Default : Yes
Forced : No

Text #2
ID : 4
Format : UTF-8
Codec ID : S_TEXT/UTF8
Codec ID/Info : UTF-8 Plain Text
Duration : 1 h 22 min
Bit rate : 37 b/s
Count of elements : 1005
Stream size : 22.6 KiB (0%)
Title : Simplified
Language : Chinese
Default : No
Forced : No

Text #3
ID : 5
Format : UTF-8
Codec ID : S_TEXT/UTF8
Codec ID/Info : UTF-8 Plain Text
Duration : 1 h 22 min
Bit rate : 37 b/s
Count of elements : 1005
Stream size : 22.6 KiB (0%)
Title : Traditional
Language : Chinese
Default : No
Forced : No

Menu
00:00:00.000 : en:00:00:00.000
00:12:27.121 : en:00:12:27.121
00:28:20.824 : en:00:28:20.824
00:43:31.734 : en:00:43:31.734
00:54:21.424 : en:00:54:21.424
01:13:24.358 : en:01:13:24.358
01:25:00.094 : en:01:25:00.094



磁力链接:
magnet:?xt=urn:btih:1d8011668a173a1294768dfe4d3862580d89f859&dn=Dawn.of.The.Felines.2017.JAPANESE.1080p.BluRay.x264-iKiW&tr=http%3A%2F%2Ftracker.trackerfix.com%3A80%2Fannounce&tr=udp%3A%2F%2F9.rarbg.me%3A2730&tr=udp%3A%2F%2F9.rarbg.to%3A2780

本帖子中包含更多资源

您需要 登录 才可以下载或查看,没有帐号?立即注册

x

1

主题

1796

帖子

2343

积分

赤血神龙

Rank: 20Rank: 20Rank: 20Rank: 20

积分
2343
发表于 2020-2-24 04:12:50 | 显示全部楼层
谢谢分享,温暖好电影。

21

主题

1万

帖子

1万

积分

神界龙王

Rank: 30Rank: 30Rank: 30Rank: 30

积分
14159
发表于 2020-2-24 11:25:39 | 显示全部楼层
谢谢楼主分享精彩影片,辛苦了

2

主题

3万

帖子

4万

积分

升龙霸·VIP

Rank: 22Rank: 22Rank: 22Rank: 22

积分
43680

龙网爱心勋章龙网VIP·银牌

发表于 2020-2-24 23:23:21 | 显示全部楼层
谢谢楼主发片

0

主题

31

帖子

44

积分

泡泡龙

Rank: 5Rank: 5Rank: 5

积分
44
发表于 2020-2-26 17:48:02 | 显示全部楼层
日本人拍这个,确实有一套。

1

主题

1796

帖子

2343

积分

赤血神龙

Rank: 20Rank: 20Rank: 20Rank: 20

积分
2343
发表于 2020-3-9 01:03:29 | 显示全部楼层
感谢楼主的分享

0

主题

74

帖子

147

积分

龙之子

Rank: 8Rank: 8Rank: 8Rank: 8

积分
147
发表于 2020-3-23 17:41:51 | 显示全部楼层
en 霓虹国拍这个,确实有一套。

1

主题

1162

帖子

1504

积分

神龙

Rank: 15Rank: 15Rank: 15

积分
1504
发表于 昨天 17:40 | 显示全部楼层
感谢楼主 分享好资源
您需要登录后才可以回帖 登录 | 立即注册

本版积分规则

小黑屋|梦幻天堂·龙网

GMT+8, 2020-4-2 15:43 , Processed in 0.138829 second(s), 21 queries , Gzip On.

Powered by Discuz! X3.2

© 2001-2013 Comsenz Inc.

快速回复 返回顶部 返回列表