梦幻天堂·龙网

 找回密码
 立即注册
查看: 289|回复: 6

[1080p] [剧情]一念无明.CHINESE.1080p.BluRay.x264-iKiW 8.54 GB 粤语简繁中字

[复制链接]

6548

主题

8645

帖子

1万

积分

神界龙王

Rank: 30Rank: 30Rank: 30Rank: 30

积分
18541

龙网爱心勋章

发表于 2020-2-23 17:52:32 | 显示全部楼层 |阅读模式

导演: 黄进
编剧: 黄进 / 陈楚珩
主演: 曾志伟 / 余文乐 / 方皓玟 / 金燕玲 / 陈学文 / 麦子乐 / 吴肇轩 / 税瀞熙 / 陈彼得 / 朱跃希 / 陈凤珍 / 曾洁卿
类型: 剧情 / 家庭
制片国家/地区: 中国香港
语言: 粤语
上映日期: 2017-03-30(中国香港) / 2017-04-07(中国大陆) / 2016-09-08(多伦多电影节)
片长: 101分钟
又名: Mad World
IMDb链接: tt6041030


一念无明的剧情简介 · · · · · ·
  患有躁郁症的阿东(余文乐 饰)因为当年误杀饱受痛症折磨的妈妈(金燕玲 饰)被判入住青山医院,康复出院后住在当陆港司机的爸爸黄大海(曾志伟 饰)的板间房里。黄大海试图关心儿子,但阿东却并不领情,原来阿东一直对爸爸当年抛弃家庭的事耿耿于怀。阿东重投社会,却遭到身边的朋友歧视,唯然他尝试平复自己,同时阿东也想尽方法希望找回当天谈到近乎订婚的Jenny(方皓玟 饰),没想到当找到Jenny时,却有着另一番滋味。


一念无明 一念無明 获奖情况
第53届台北金马影展  (2016)
金马奖 最佳男配角(提名) 曾志伟
金马奖 最佳女配角 金燕玲
金马奖 最佳新导演 黄进
第36届香港电影金像奖  (2017)
最佳导演(提名) 黄进
最佳编剧(提名) 陈楚珩
最佳男主角(提名) 余文乐
最佳男配角 曾志伟
最佳女配角 金燕玲
最佳女配角(提名) 方皓玟
最佳原创电影音乐(提名) 波多野裕介
新晋导演 黄进
第11届亚洲电影大奖  (2017)
最佳女配角(提名) 金燕玲
第41届香港国际电影节  (2017)
国际短片竞赛 特别表扬(本地) 黄进





一念无明.Mad.World.2016.CHINESE.1080p.BluRay.x264-iKiW 8.54 GB 粤语简繁中字
Video
ID : 1
Format : AVC
Format/Info : Advanced Video Codec
Format profile : High@L4.1
Format settings : CABAC / 5 Ref Frames
Format settings, CABAC : Yes
Format settings, Reference frames : 5 frames
Codec ID : V_MPEG4/ISO/AVC
Duration : 1 h 41 min
Bit rate : 11.4 Mb/s
Width : 1 920 pixels
Height : 804 pixels
Display aspect ratio : 2.40:1
Frame rate mode : Constant
Frame rate : 24.000 FPS
Color space : YUV
Chroma subsampling : 4:2:0
Bit depth : 8 bits
Scan type : Progressive
Bits/(Pixel*Frame) : 0.307
Stream size : 8.08 GiB (95%)
Writing library : x264 core 129 r2245 bc13772
Encoding settings : cabac=1 / ref=5 / deblock=1:-3:-3 / analyse=0x3:0x133 / me=umh / subme=11 / psy=1 / psy_rd=1.05:0.05 / mixed_ref=1 / me_range=64 / chroma_me=1 / trellis=2 / 8x8dct=1 / cqm=0 / deadzone=21,11 / fast_pskip=0 / chroma_qp_offset=-3 / threads=12 / lookahead_threads=2 / sliced_threads=0 / nr=0 / decimate=1 / interlaced=0 / bluray_compat=0 / constrained_intra=0 / bframes=8 / b_pyramid=2 / b_adapt=2 / b_bias=0 / direct=3 / weightb=1 / open_gop=0 / weightp=2 / keyint=250 / keyint_min=24 / scenecut=40 / intra_refresh=0 / rc_lookahead=60 / rc=2pass / mbtree=1 / bitrate=11364 / ratetol=1.0 / qcomp=0.60 / qpmin=0 / qpmax=69 / qpstep=4 / cplxblur=20.0 / qblur=0.5 / vbv_maxrate=40000 / vbv_bufsize=30000 / nal_hrd=none / ip_ratio=1.40 / aq=1:0.80
Language : English
Default : Yes
Forced : No

Audio
ID : 2
Format : AC-3
Format/Info : Audio Coding 3
Commercial name : Dolby Digital
Codec ID : A_AC3
Duration : 1 h 41 min
Bit rate mode : Constant
Bit rate : 640 kb/s
Channel(s) : 6 channels
Channel layout : L R C LFE Ls Rs
Sampling rate : 48.0 kHz
Frame rate : 31.250 FPS (1536 SPF)
Bit depth : 16 bits
Compression mode : Lossy
Stream size : 466 MiB (5%)
Title : Cantonese
Language : Chinese
Service kind : Complete Main
Default : Yes
Forced : No

Text #1
ID : 3
Format : UTF-8
Codec ID : S_TEXT/UTF8
Codec ID/Info : UTF-8 Plain Text
Duration : 1 h 37 min
Bit rate : 35 b/s
Count of elements : 997
Stream size : 25.6 KiB (0%)
Language : English
Default : Yes
Forced : No

Text #2
ID : 4
Format : UTF-8
Codec ID : S_TEXT/UTF8
Codec ID/Info : UTF-8 Plain Text
Duration : 1 h 37 min
Bit rate : 31 b/s
Count of elements : 993
Stream size : 22.8 KiB (0%)
Title : 简体
Language : Chinese
Default : No
Forced : No

Text #3
ID : 5
Format : UTF-8
Codec ID : S_TEXT/UTF8
Codec ID/Info : UTF-8 Plain Text
Duration : 1 h 37 min
Bit rate : 31 b/s
Count of elements : 993
Stream size : 22.8 KiB (0%)
Title : 繁体
Language : Chinese
Default : No
Forced : No



磁力链接:
magnet:?xt=urn:btih:deded5a94ea5670f77c2f772c3ec84bb949ed9ea&dn=Mad.World.2016.CHINESE.1080p.BluRay.x264-iKiW&tr=http%3A%2F%2Ftracker.trackerfix.com%3A80%2Fannounce&tr=udp%3A%2F%2F9.rarbg.me%3A2770&tr=udp%3A%2F%2F9.rarbg.to%3A2730

本帖子中包含更多资源

您需要 登录 才可以下载或查看,没有帐号?立即注册

x

1

主题

1796

帖子

2343

积分

赤血神龙

Rank: 20Rank: 20Rank: 20Rank: 20

积分
2343
发表于 2020-2-24 04:15:19 | 显示全部楼层
谢谢分享,温暖好电影。

21

主题

1万

帖子

1万

积分

神界龙王

Rank: 30Rank: 30Rank: 30Rank: 30

积分
14159
发表于 2020-2-24 11:25:28 | 显示全部楼层
谢谢楼主分享精彩影片,辛苦了

2

主题

3万

帖子

4万

积分

升龙霸·VIP

Rank: 22Rank: 22Rank: 22Rank: 22

积分
43680

龙网爱心勋章龙网VIP·银牌

发表于 2020-2-24 23:23:06 | 显示全部楼层
谢谢楼主发片

1

主题

1162

帖子

1504

积分

神龙

Rank: 15Rank: 15Rank: 15

积分
1504
发表于 2020-2-25 10:05:54 | 显示全部楼层
很有点意思的电影

1

主题

1796

帖子

2343

积分

赤血神龙

Rank: 20Rank: 20Rank: 20Rank: 20

积分
2343
发表于 2020-3-9 01:03:16 | 显示全部楼层
感谢楼主的分享

1

主题

1162

帖子

1504

积分

神龙

Rank: 15Rank: 15Rank: 15

积分
1504
发表于 昨天 17:41 | 显示全部楼层
感谢楼主 分享好资源
您需要登录后才可以回帖 登录 | 立即注册

本版积分规则

小黑屋|梦幻天堂·龙网

GMT+8, 2020-4-2 13:22 , Processed in 0.133799 second(s), 21 queries , Gzip On.

Powered by Discuz! X3.2

© 2001-2013 Comsenz Inc.

快速回复 返回顶部 返回列表