梦幻天堂·龙网

 找回密码
 立即注册
查看: 374|回复: 7

[1080p] [喜剧]王牌逗王牌.2016.CHINESE.1080p.BluRay.x264.DTS-MT 7.89 GB 国语英字

[复制链接]

6534

主题

8631

帖子

1万

积分

神界龙王

Rank: 30Rank: 30Rank: 30Rank: 30

积分
18507

龙网爱心勋章

发表于 2020-2-23 17:53:46 | 显示全部楼层 |阅读模式

导演: 王晶
编剧: 王晶
主演: 刘德华 / 黄晓明 / 王祖蓝 / 胡然 / 欧阳娜娜 / 谢依霖 / 沈腾 / 赵英俊 / 戚薇 / 徐冬冬 / 毛俊杰 / 吴樾
类型: 喜剧 / 动作 / 冒险
制片国家/地区: 中国大陆 / 中国香港
语言: 汉语普通话
上映日期: 2016-09-30(中国大陆)
片长: 102分钟
又名: 偷天特务(港) / 盗中盗 / 爱上贼中贼 / Mission Milano
IMDb链接: tt5425144


王牌逗王牌的剧情简介 · · · · · ·
  囧探宝爷(刘德华 饰)与侠盗洛家豪(黄晓明 饰)强强联手,与世界恐怖组织抢夺“上帝种子”,所谓“上帝种子”是一种神奇的种子,无论丢在哪里,只需要一点水,就可以迅速长出参天大树。而唯恐天下不乱的恐怖组织居然拿到了这种神奇的“上帝种子”,试图改变甚至掌控这个世界。为了维护世界和平,宝爷和家豪在A梦(王祖蓝 饰)、洛家欣(欧阳娜娜 饰)等人的帮助下,冒险夺宝拯救世界的故事。


王牌逗王牌 获奖情况
第8届金扫帚奖  (2017)
最令人失望导演 王晶





王牌逗王牌.Mission.Milano.2016.CHINESE.1080p.BluRay.x264.DTS-MT 7.89 GB 国语英字
Video
ID : 1
Format : AVC
Format/Info : Advanced Video Codec
Format profile : High@L4.1
Format settings : CABAC / 5 Ref Frames
Format settings, CABAC : Yes
Format settings, Reference frames : 5 frames
Codec ID : V_MPEG4/ISO/AVC
Duration : 1 h 42 min
Bit rate : 9 500 kb/s
Width : 1 920 pixels
Height : 804 pixels
Display aspect ratio : 2.40:1
Frame rate mode : Constant
Frame rate : 24.000 FPS
Color space : YUV
Chroma subsampling : 4:2:0
Bit depth : 8 bits
Scan type : Progressive
Bits/(Pixel*Frame) : 0.256
Stream size : 6.81 GiB (86%)
Writing library : x264 core 148 r2597 e86f3a1
Encoding settings : cabac=1 / ref=5 / deblock=1:0:0 / analyse=0x3:0x113 / me=umh / subme=10 / psy=1 / psy_rd=1.05:0.10 / mixed_ref=1 / me_range=48 / chroma_me=1 / trellis=2 / 8x8dct=1 / cqm=0 / deadzone=21,11 / fast_pskip=0 / chroma_qp_offset=-2 / threads=12 / lookahead_threads=1 / sliced_threads=0 / nr=0 / decimate=1 / interlaced=0 / bluray_compat=0 / constrained_intra=0 / bframes=6 / b_pyramid=2 / b_adapt=2 / b_bias=0 / direct=3 / weightb=1 / open_gop=0 / weightp=2 / keyint=250 / keyint_min=24 / scenecut=40 / intra_refresh=0 / rc=2pass / mbtree=0 / bitrate=9500 / ratetol=2.0 / qcomp=0.70 / qpmin=0 / qpmax=69 / qpstep=4 / cplxblur=20.0 / qblur=0.5 / ip_ratio=1.40 / pb_ratio=1.30 / aq=2:1.00
Language : Chinese
Default : Yes
Forced : No

Audio
ID : 2
Format : DTS
Format/Info : Digital Theater Systems
Codec ID : A_DTS
Duration : 1 h 42 min
Bit rate mode : Constant
Bit rate : 1 509 kb/s
Channel(s) : 6 channels
Channel layout : C L R Ls Rs LFE
Sampling rate : 48.0 kHz
Frame rate : 93.750 FPS (512 SPF)
Bit depth : 16 bits
Compression mode : Lossy
Stream size : 1.08 GiB (14%)
Language : Chinese
Default : Yes
Forced : No

Text
ID : 3
Format : UTF-8
Codec ID : S_TEXT/UTF8
Codec ID/Info : UTF-8 Plain Text
Duration : 1 h 35 min
Bit rate : 42 b/s
Count of elements : 1162
Stream size : 29.7 KiB (0%)
Language : English
Default : Yes
Forced : No



磁力链接:
magnet:?xt=urn:btih:fa93563512388dd0de3148c9d02ade35909ef48a&dn=Mission.Milano.2016.CHINESE.1080p.BluRay.x264.DTS-MT&tr=http%3A%2F%2Ftracker.trackerfix.com%3A80%2Fannounce&tr=udp%3A%2F%2F9.rarbg.me%3A2790&tr=udp%3A%2F%2F9.rarbg.to%3A2740

本帖子中包含更多资源

您需要 登录 才可以下载或查看,没有帐号?立即注册

x

1

主题

1796

帖子

2342

积分

赤血神龙

Rank: 20Rank: 20Rank: 20Rank: 20

积分
2342
发表于 2020-2-24 04:14:13 | 显示全部楼层
谢谢分享,温暖好电影。

21

主题

1万

帖子

1万

积分

神界龙王

Rank: 30Rank: 30Rank: 30Rank: 30

积分
13901
发表于 2020-2-24 11:25:16 | 显示全部楼层
谢谢楼主分享精彩影片,辛苦了

2

主题

3万

帖子

4万

积分

升龙霸·VIP

Rank: 22Rank: 22Rank: 22Rank: 22

积分
43676

龙网爱心勋章龙网VIP·银牌

发表于 2020-2-24 23:22:51 | 显示全部楼层
谢谢楼主发片

1

主题

1084

帖子

1403

积分

神龙

Rank: 15Rank: 15Rank: 15

积分
1403
发表于 2020-2-26 08:21:34 | 显示全部楼层
这部资源还是比较难找到的

1

主题

1796

帖子

2342

积分

赤血神龙

Rank: 20Rank: 20Rank: 20Rank: 20

积分
2342
发表于 2020-3-9 01:03:03 | 显示全部楼层
感谢楼主的分享

1

主题

416

帖子

1024

积分

神龙

Rank: 15Rank: 15Rank: 15

积分
1024
发表于 2020-3-9 22:49:43 | 显示全部楼层
谢谢楼主分享

0

主题

52

帖子

109

积分

龙之子

Rank: 8Rank: 8Rank: 8Rank: 8

积分
109
发表于 2020-3-23 22:18:59 | 显示全部楼层
评分不高哈。
您需要登录后才可以回帖 登录 | 立即注册

本版积分规则

小黑屋|梦幻天堂·龙网

GMT+8, 2020-3-31 03:01 , Processed in 0.122332 second(s), 21 queries , Gzip On.

Powered by Discuz! X3.2

© 2001-2013 Comsenz Inc.

快速回复 返回顶部 返回列表