梦幻天堂·龙网

 找回密码
 立即注册
查看: 547|回复: 4

[1080p] [喜剧]恋爱之瘾.Pg.Love.2016.CHINESE.1080p.BluRay.x264-iKiW 7.51 GB 粤语简繁中字

[复制链接]

6548

主题

8645

帖子

1万

积分

神界龙王

Rank: 30Rank: 30Rank: 30Rank: 30

积分
18541

龙网爱心勋章

发表于 2020-2-23 17:54:55 | 显示全部楼层 |阅读模式

导演: 蔡洁铃
编剧: 叶念琛
主演: 岑日珈 / 崔碧珈 / 曾淑雅 / 马志威 / 庄思敏 / 罗彩玲 / 陈婉衡 / 林盛斌 / 邹文正 / 陆骏光 / 邵音音 / 胡渭康
类型: 剧情 / 喜剧 / 爱情
制片国家/地区: 中国香港
语言: 汉语普通话
上映日期: 2016-02-25(中国香港) / 2017-11-17(中国大陆)
片长: 98分钟
又名: PG恋爱指引 / PG Love
IMDb链接: tt6423408


恋爱之瘾的剧情简介 · · · · · ·
  几个背景经历不同的女生,因为PG(Promotion girl)展开了不同的人生。晴晴 (岑日珈 饰)为储钱和男朋友志威(马志威 饰)去旅行,偷偷当上PG工作,后来志威发现后与她分手,而富二代Torres(赵劲皓 饰)也对她热烈追求,她周旋在二人之间。
  Sugar(曾淑雅 饰)和Candy(崔碧珈 饰)是当红PG,善于用手段得到男人的好处,在一次富豪饭局认识了银行家Vincent(陆骏光 饰),二人因先后与他发展而反目,事后竟发现Vincent一个不可告人的秘密。
  Vicky(陈婉衡 饰)和Sammy(罗彩宁 饰)是大学同学,希望借着PG工作引来网民关注,杀入模特儿行列,她们经常毫不吝啬地展示身材搏出位。
  凤姐(庄思敏 饰)曾经叱咤PG界,在当红时遇上真爱而急流勇退。几年后她惨遭被抛弃而自暴自弃,直到重遇识于微时的Happy哥(林盛斌 饰),在他的多次支持下,终于再次建立自信。





恋爱之瘾.Pg.Love.2016.CHINESE.1080p.BluRay.x264-iKiW 7.51 GB 粤语简繁中字
Video
ID : 1
Format : AVC
Format/Info : Advanced Video Codec
Format profile : High@L4.1
Format settings : CABAC / 5 Ref Frames
Format settings, CABAC : Yes
Format settings, Reference frames : 5 frames
Codec ID : V_MPEG4/ISO/AVC
Duration : 1 h 38 min
Bit rate : 10.3 Mb/s
Width : 1 920 pixels
Height : 804 pixels
Display aspect ratio : 2.40:1
Frame rate mode : Constant
Frame rate : 24.000 FPS
Color space : YUV
Chroma subsampling : 4:2:0
Bit depth : 8 bits
Scan type : Progressive
Bits/(Pixel*Frame) : 0.279
Stream size : 7.07 GiB (94%)
Writing library : x264 core 129 r2245 bc13772
Encoding settings : cabac=1 / ref=5 / deblock=1:-3:-3 / analyse=0x3:0x133 / me=umh / subme=11 / psy=1 / psy_rd=1.05:0.05 / mixed_ref=1 / me_range=64 / chroma_me=1 / trellis=2 / 8x8dct=1 / cqm=0 / deadzone=21,11 / fast_pskip=0 / chroma_qp_offset=-3 / threads=12 / lookahead_threads=2 / sliced_threads=0 / nr=0 / decimate=1 / interlaced=0 / bluray_compat=0 / constrained_intra=0 / bframes=8 / b_pyramid=2 / b_adapt=2 / b_bias=0 / direct=3 / weightb=1 / open_gop=0 / weightp=2 / keyint=250 / keyint_min=24 / scenecut=40 / intra_refresh=0 / rc_lookahead=60 / rc=2pass / mbtree=1 / bitrate=10335 / ratetol=1.0 / qcomp=0.60 / qpmin=0 / qpmax=69 / qpstep=4 / cplxblur=20.0 / qblur=0.5 / vbv_maxrate=40000 / vbv_bufsize=30000 / nal_hrd=none / ip_ratio=1.40 / aq=1:0.80
Language : English
Default : Yes
Forced : No

Audio
ID : 2
Format : AC-3
Format/Info : Audio Coding 3
Commercial name : Dolby Digital
Codec ID : A_AC3
Duration : 1 h 38 min
Bit rate mode : Constant
Bit rate : 640 kb/s
Channel(s) : 6 channels
Channel layout : L R C LFE Ls Rs
Sampling rate : 48.0 kHz
Frame rate : 31.250 FPS (1536 SPF)
Bit depth : 16 bits
Compression mode : Lossy
Stream size : 449 MiB (6%)
Title : Cantonese
Language : Chinese
Service kind : Complete Main
Default : Yes
Forced : No

Text #1
ID : 3
Format : UTF-8
Codec ID : S_TEXT/UTF8
Codec ID/Info : UTF-8 Plain Text
Duration : 1 h 35 min
Bit rate : 81 b/s
Count of elements : 1814
Stream size : 56.6 KiB (0%)
Language : English
Default : Yes
Forced : No

Text #2
ID : 4
Format : UTF-8
Codec ID : S_TEXT/UTF8
Codec ID/Info : UTF-8 Plain Text
Duration : 1 h 35 min
Bit rate : 66 b/s
Count of elements : 1801
Stream size : 46.6 KiB (0%)
Title : 简体
Language : Chinese
Default : No
Forced : No

Text #3
ID : 5
Format : UTF-8
Codec ID : S_TEXT/UTF8
Codec ID/Info : UTF-8 Plain Text
Duration : 1 h 35 min
Bit rate : 66 b/s
Count of elements : 1801
Stream size : 46.6 KiB (0%)
Title : 繁体
Language : Chinese
Default : No
Forced : No



磁力链接:
magnet:?xt=urn:btih:92379e2cc627f72e1a3f2f942b9940b2afa9d414&dn=Pg.Love.2016.CHINESE.1080p.BluRay.x264-iKiW&tr=http%3A%2F%2Ftracker.trackerfix.com%3A80%2Fannounce&tr=udp%3A%2F%2F9.rarbg.me%3A2730&tr=udp%3A%2F%2F9.rarbg.to%3A2790

本帖子中包含更多资源

您需要 登录 才可以下载或查看,没有帐号?立即注册

x

1

主题

1796

帖子

2343

积分

赤血神龙

Rank: 20Rank: 20Rank: 20Rank: 20

积分
2343
发表于 2020-2-24 04:15:02 | 显示全部楼层
谢谢分享,温暖好电影。

21

主题

1万

帖子

1万

积分

神界龙王

Rank: 30Rank: 30Rank: 30Rank: 30

积分
14159
发表于 2020-2-24 11:25:03 | 显示全部楼层
谢谢楼主分享精彩影片,辛苦了

2

主题

3万

帖子

4万

积分

升龙霸·VIP

Rank: 22Rank: 22Rank: 22Rank: 22

积分
43680

龙网爱心勋章龙网VIP·银牌

发表于 2020-2-24 23:22:32 | 显示全部楼层
谢谢楼主发片

1

主题

1796

帖子

2343

积分

赤血神龙

Rank: 20Rank: 20Rank: 20Rank: 20

积分
2343
发表于 2020-3-9 01:02:51 | 显示全部楼层
感谢楼主的分享
您需要登录后才可以回帖 登录 | 立即注册

本版积分规则

小黑屋|梦幻天堂·龙网

GMT+8, 2020-4-2 14:48 , Processed in 0.150566 second(s), 21 queries , Gzip On.

Powered by Discuz! X3.2

© 2001-2013 Comsenz Inc.

快速回复 返回顶部 返回列表