梦幻天堂·龙网

 找回密码
 立即注册
查看: 1577|回复: 9

[1080p] [喜剧]湿濡的女人.2016.JAPANESE.1080p.BluRay.x264-iKiW 6.56 GB 如简繁中字

[复制链接]

6548

主题

8645

帖子

1万

积分

神界龙王

Rank: 30Rank: 30Rank: 30Rank: 30

积分
18541

龙网爱心勋章

发表于 2020-2-23 17:55:55 | 显示全部楼层 |阅读模式

导演: 盐田明彦
编剧: 盐田明彦
主演: 间宫夕贵 / 永冈佑 / 郑龙进 / 铃木美智子 / 中谷仁美 / 加藤贵宏 / 赤木悠真 / 谷户亮太 / 池村匡纪 / 前田峻辅 / 大西辉卓
类型: 喜剧 / 情色
官方网站: www.nikkatsu-romanporno.com/reboot/wetwoman/
制片国家/地区: 日本
语言: 日语
上映日期: 2016-08-05(洛迦诺电影节) / 2016-12-17(日本)
片长: 78分钟
又名: 野风湿身的女人(台) / Wet Woman in the Wind
IMDb链接: tt5883008


湿濡的女人剧情简介
  电影公司「日活」创业百年,最具代表性的一个品牌,是在七、 八十年代风靡一时的「粉红映画」(日文叫Roman Porno,海外称之为Pink Movie),亦即是浪漫化的成人电影。今年适逢「粉红映画」诞生四十五周年,「日活」特别筹划了「Roman Porno Reboot」计划,找来园子温、行定勳、中田秀夫、盐田明彦、白石和弥五位名导操刀,各拍一部粉红片。五人要跟足过往的游戏规则:每十分钟要有一场情慾戏、片长必须在七十至八十分钟之间、一律只有很低的製作费、要一星期内完成拍摄,其他一切自由发挥。结果证明五位导演不但玩得起,而且还玩得极有一手。
  盐田的《湿濡的女人》最先曝光,重新演绎「粉红」经典《湿濡的恋人们》,讲野性少女在海边故意湿身,然后贱价卖身给路过的男人。白石执导的《雌猫们》同样向经典《雌猫们之夜》致敬,新版搬到池袋街头上演,讲在网吧打趸的难民、单亲妈妈和不育人妻在夜间浪荡的性活动。行定勳的《撩乱的裸舞曲》则是原创故事,谐星板尾创路演脑闭塞导演,陷入了女色陷阱,搞到身败名裂。《午夜凶铃》导演中田秀夫初战成人世界,打动了九十后女优飞鸟凛全裸演出女同志故事《白百合》。向来出位的园子温就尽展其反叛本色,以毒攻毒,用色情反色情拍了《Antiporno》,找来前AKB成员富手麻妙首次全裸主演。
  「粉红映画」之所以留名几十年,是因为「淫」得有道,成本低但剧本扎实,而且是当时年轻新导磨练技艺的修罗场,《礼仪师》奥斯卡导演泷田洋二郎、《谈谈情,跳跳舞》的周防正行、《死亡笔记》的金子修介、《后乐园》已故导演森田芳光等大导出道时都拍过粉红片。停产了廿八年的粉红系列今次一口气推出五片,别具意义,将陆续于十一月底起在日本上映。


湿濡的女人 風に濡れた女 获奖情况
第69届洛迦诺国际电影节  (2016)
金豹奖(提名) 盐田明彦





湿濡的女人.Wet.Woman.in.the.Wind.2016.JAPANESE.1080p.BluRay.x264-iKiW 6.56 GB 如简繁中字
Video
ID : 1
Format : AVC
Format/Info : Advanced Video Codec
Format profile : High@L4.1
Format settings : CABAC / 4 Ref Frames
Format settings, CABAC : Yes
Format settings, Reference frames : 4 frames
Codec ID : V_MPEG4/ISO/AVC
Duration : 1 h 18 min
Bit rate : 11.6 Mb/s
Width : 1 920 pixels
Height : 1 040 pixels
Display aspect ratio : 1.85:1
Frame rate mode : Constant
Frame rate : 23.976 (24000/1001) FPS
Color space : YUV
Chroma subsampling : 4:2:0
Bit depth : 8 bits
Scan type : Progressive
Bits/(Pixel*Frame) : 0.242
Stream size : 6.31 GiB (96%)
Writing library : x264 core 129 r2245+704+36 8e61944 tMod+MixAQ [8-bit@4:2:0 X86_64]
Encoding settings : cabac=1 / ref=4 / deblock=1:-3:-3 / analyse=0x3:0x133 / me=umh / subme=11 / psy=1 / fade_compensate=0.00 / psy_rd=1.05:0.10 / mixed_ref=1 / me_range=64 / chroma_me=1 / trellis=2 / 8x8dct=1 / cqm=0 / deadzone=21,11 / fast_pskip=0 / chroma_qp_offset=-3 / threads=18 / lookahead_threads=3 / sliced_threads=0 / nr=0 / decimate=0 / interlaced=0 / bluray_compat=0 / constrained_intra=0 / fgo=0 / bframes=10 / b_pyramid=2 / b_adapt=2 / b_bias=0 / direct=3 / weightb=1 / open_gop=0 / weightp=2 / keyint=250 / keyint_min=23 / scenecut=40 / intra_refresh=0 / rc=2pass / mbtree=0 / bitrate=11586 / ratetol=1.0 / qcomp=0.70 / qpmin=0 / qpmax=69 / qpstep=4 / cplxblur=20.0 / qblur=0.5 / ip_ratio=1.40 / pb_ratio=1.30 / aq=1 / aq-strength=0.90 / aq-sensitivity=10.00 / aq-ifactor=1.00 / aq-pfactor=1.00 / aq-bfactor=1.00 / aq2=0
Language : Japanese
Default : Yes
Forced : No

Audio
ID : 2
Format : AC-3
Format/Info : Audio Coding 3
Commercial name : Dolby Digital
Codec ID : A_AC3
Duration : 1 h 18 min
Bit rate mode : Constant
Bit rate : 448 kb/s
Channel(s) : 6 channels
Channel layout : L R C LFE Ls Rs
Sampling rate : 48.0 kHz
Frame rate : 31.250 FPS (1536 SPF)
Bit depth : 16 bits
Compression mode : Lossy
Stream size : 250 MiB (4%)
Language : Japanese
Service kind : Complete Main
Default : Yes
Forced : No

Text #1
ID : 3
Format : UTF-8
Codec ID : S_TEXT/UTF8
Codec ID/Info : UTF-8 Plain Text
Duration : 1 h 15 min
Bit rate : 23 b/s
Count of elements : 520
Stream size : 13.3 KiB (0%)
Language : English
Default : Yes
Forced : No

Text #2
ID : 4
Format : UTF-8
Codec ID : S_TEXT/UTF8
Codec ID/Info : UTF-8 Plain Text
Duration : 1 h 15 min
Bit rate : 27 b/s
Count of elements : 592
Stream size : 15.1 KiB (0%)
Title : Simplified_TW
Language : Chinese
Default : No
Forced : No

Text #3
ID : 5
Format : UTF-8
Codec ID : S_TEXT/UTF8
Codec ID/Info : UTF-8 Plain Text
Duration : 1 h 15 min
Bit rate : 27 b/s
Count of elements : 592
Stream size : 15.1 KiB (0%)
Title : Traditional_TW
Language : Chinese
Default : No
Forced : No

Text #4
ID : 6
Format : UTF-8
Codec ID : S_TEXT/UTF8
Codec ID/Info : UTF-8 Plain Text
Duration : 1 h 15 min
Bit rate : 20 b/s
Count of elements : 519
Stream size : 11.1 KiB (0%)
Title : Simplified_HK
Language : Chinese
Default : No
Forced : No

Text #5
ID : 7
Format : UTF-8
Codec ID : S_TEXT/UTF8
Codec ID/Info : UTF-8 Plain Text
Duration : 1 h 15 min
Bit rate : 20 b/s
Count of elements : 519
Stream size : 11.1 KiB (0%)
Title : Traditional_HK
Language : Chinese
Default : No
Forced : No

Menu
00:00:00.000 : en:00:00:00.000
00:14:19.316 : en:00:14:19.316
00:29:26.973 : en:00:29:26.973
00:37:29.455 : en:00:37:29.455
00:53:29.581 : en:00:53:29.581
01:12:50.991 : en:01:12:50.991
01:18:02.344 : en:01:18:02.344



磁力链接:
magnet:?xt=urn:btih:852316be93c095bd8ff9b112132e47839f2df3f5&dn=Wet.Woman.in.the.Wind.2016.JAPANESE.1080p.BluRay.x264-iKiW&tr=http%3A%2F%2Ftracker.trackerfix.com%3A80%2Fannounce&tr=udp%3A%2F%2F9.rarbg.me%3A2750&tr=udp%3A%2F%2F9.rarbg.to%3A2720

本帖子中包含更多资源

您需要 登录 才可以下载或查看,没有帐号?立即注册

x

1

主题

1796

帖子

2343

积分

赤血神龙

Rank: 20Rank: 20Rank: 20Rank: 20

积分
2343
发表于 2020-2-24 04:13:51 | 显示全部楼层
谢谢分享,温暖好电影。

21

主题

1万

帖子

1万

积分

神界龙王

Rank: 30Rank: 30Rank: 30Rank: 30

积分
14159
发表于 2020-2-24 11:24:49 | 显示全部楼层
谢谢楼主分享精彩影片,辛苦了

2

主题

3万

帖子

4万

积分

升龙霸·VIP

Rank: 22Rank: 22Rank: 22Rank: 22

积分
43680

龙网爱心勋章龙网VIP·银牌

发表于 2020-2-24 23:22:18 | 显示全部楼层
谢谢楼主发片

0

主题

31

帖子

44

积分

泡泡龙

Rank: 5Rank: 5Rank: 5

积分
44
发表于 2020-2-26 17:48:53 | 显示全部楼层
有趣的,下载了看一看吧。

1

主题

45

帖子

116

积分

龙之子

Rank: 8Rank: 8Rank: 8Rank: 8

积分
116
发表于 2020-2-27 22:07:53 | 显示全部楼层
感谢楼主分享,辛苦。

0

主题

50

帖子

109

积分

龙之子

Rank: 8Rank: 8Rank: 8Rank: 8

积分
109
发表于 2020-2-29 16:04:06 | 显示全部楼层
果然是部 日本电影!

3

主题

39

帖子

70

积分

龙之子

Rank: 8Rank: 8Rank: 8Rank: 8

积分
70
发表于 2020-3-2 13:42:54 | 显示全部楼层
建议老板 制作多一些   MKV格式的高清电影   容量控制在1.5G左右   (90分钟的电影)

1

主题

1796

帖子

2343

积分

赤血神龙

Rank: 20Rank: 20Rank: 20Rank: 20

积分
2343
发表于 2020-3-5 02:21:58 | 显示全部楼层
谢谢楼主发片

1

主题

1796

帖子

2343

积分

赤血神龙

Rank: 20Rank: 20Rank: 20Rank: 20

积分
2343
发表于 2020-3-9 01:02:37 | 显示全部楼层
感谢楼主的分享
您需要登录后才可以回帖 登录 | 立即注册

本版积分规则

小黑屋|梦幻天堂·龙网

GMT+8, 2020-4-2 15:35 , Processed in 0.165528 second(s), 21 queries , Gzip On.

Powered by Discuz! X3.2

© 2001-2013 Comsenz Inc.

快速回复 返回顶部 返回列表