梦幻天堂·龙网

 找回密码
 立即注册
查看: 889|回复: 12

[1080p] [战争]王者天下.Kingdom.2019.1080p.BluRay.x264-JustWatch 10.94 GB

[复制链接]

6548

主题

8645

帖子

1万

积分

神界龙王

Rank: 30Rank: 30Rank: 30Rank: 30

积分
18541

龙网爱心勋章

发表于 2020-2-23 17:57:51 | 显示全部楼层 |阅读模式

导演: 佐藤信介
编剧: 黑岩勉 / 佐藤信介 / 原泰久
主演: 山崎贤人 / 吉泽亮 / 长泽雅美 / 桥本环奈 / 本乡奏多 / 满岛真之介 / 阿部进之介 / 深水元基 / 六平直政 / 高岛政宏 / 要润 / 桥本润 / 坂口拓 / 宇梶刚士 / 加藤雅也 / 大泽隆夫 / 石桥莲司 / 大西利空
类型: 剧情 / 战争
官方网站: kingdom-the-movie.jp
制片国家/地区: 日本
语言: 日语
上映日期: 2019-04-19(日本)
片长: 134分钟
又名: Kingdom
IMDb链接: tt9099938


王者天下的剧情简介 · · · · · ·
  故事以未曾经历统一、战乱不止的中国战国时代为舞台,主人公李信是一位秦国的少年,他因为战乱而失去双亲,并在收留自己的里长家里过着奴隶一样的生活。里长家里收留了两名战争孤儿信和漂。然而,身为孤儿的信和漂并没有因为身份的卑贱而失去志向,反而这战事频繁的乱世中,立志要成为大将军,两人一同苦练武功。他们以成为名震天下的大将军为目标,每日磨练自己,等待机会建功立业。某天,漂被带入宫中任官。及后濒死的漂回到家中,信在漂指引下,见到了因为政变而被追杀的秦国大王嬴政,他戎马天下的人生便由此拉开了序幕……


王者天下 キングダム 获奖情况
第43届日本电影学院奖  (2020)
最佳影片(提名)
最佳导演(提名) 佐藤信介
最佳男配角(提名) 吉泽亮
最佳女配角(提名) 长泽雅美
最佳配乐(提名)
最佳摄影(提名)
最佳美术指导(提名)
最佳照明(提名)
最佳录音(提名)
最佳剪辑(提名)
第44届报知映画赏  (2019)
最佳导演 佐藤信介



王者天下.Kingdom.2019.1080p.BluRay.x264-JustWatch 10.94 GB
Video
ID : 1
Format : AVC
Format/Info : Advanced Video Codec
Format profile : High@L4.1
Format settings : CABAC / 5 Ref Frames
Format settings, CABAC : Yes
Format settings, Reference frames : 5 frames
Codec ID : V_MPEG4/ISO/AVC
Duration : 2 h 13 min
Bit rate : 10.2 Mb/s
Width : 1 920 pixels
Height : 808 pixels
Display aspect ratio : 2.40:1
Frame rate mode : Constant
Frame rate : 24.000 FPS
Color space : YUV
Chroma subsampling : 4:2:0
Bit depth : 8 bits
Scan type : Progressive
Bits/(Pixel*Frame) : 0.274
Stream size : 9.52 GiB (87%)
Writing library : x264 core 158 r2988 7817004
Encoding settings : cabac=1 / ref=5 / deblock=1:-2:-2 / analyse=0x3:0x113 / me=umh / subme=8 / psy=1 / psy_rd=1.00:0.00 / mixed_ref=1 / me_range=16 / chroma_me=1 / trellis=2 / 8x8dct=1 / cqm=0 / deadzone=21,11 / fast_pskip=0 / chroma_qp_offset=-2 / threads=25 / lookahead_threads=4 / sliced_threads=0 / nr=0 / decimate=1 / interlaced=0 / bluray_compat=0 / constrained_intra=0 / bframes=3 / b_pyramid=2 / b_adapt=2 / b_bias=0 / direct=3 / weightb=1 / open_gop=0 / weightp=2 / keyint=240 / keyint_min=24 / scenecut=40 / intra_refresh=0 / rc_lookahead=50 / rc=2pass / mbtree=1 / bitrate=10187 / ratetol=1.0 / qcomp=0.60 / qpmin=0 / qpmax=69 / qpstep=4 / cplxblur=20.0 / qblur=0.5 / ip_ratio=1.40 / aq=1:1.00
Language : English
Default : Yes
Forced : No

Audio
ID : 2
Format : DTS
Format/Info : Digital Theater Systems
Codec ID : A_DTS
Duration : 2 h 13 min
Bit rate mode : Constant
Bit rate : 1 509 kb/s
Channel(s) : 6 channels
Channel layout : C L R Ls Rs LFE
Sampling rate : 48.0 kHz
Frame rate : 93.750 FPS (512 SPF)
Bit depth : 24 bits
Compression mode : Lossy
Stream size : 1.41 GiB (13%)
Language : Japanese
Default : Yes
Forced : No

Text
ID : 3
Format : UTF-8
Codec ID : S_TEXT/UTF8
Codec ID/Info : UTF-8 Plain Text
Duration : 2 h 8 min
Bit rate : 28 b/s
Count of elements : 1102
Stream size : 27.2 KiB (0%)
Language : English
Default : Yes
Forced : No

Menu
00:00:00.000 : :Kapitel 01
00:03:54.542 : :Kapitel 02
00:09:10.667 : :Kapitel 03
00:14:55.000 : :Kapitel 04
00:21:55.208 : :Kapitel 05
00:34:54.042 : :Kapitel 06
00:41:36.542 : :Kapitel 07
00:50:39.875 : :Kapitel 08
00:59:57.917 : :Kapitel 09
01:11:29.833 : :Kapitel 10
01:21:29.000 : :Kapitel 11
01:31:52.625 : :Kapitel 12
01:40:51.458 : :Kapitel 13
01:52:17.208 : :Kapitel 14
01:58:16.583 : :Kapitel 15
02:07:37.125 : :Kapitel 16



磁力链接:
magnet:?xt=urn:btih:ba03bd4179ea18eae7cf5523d158b953c655e052&dn=Kingdom.2019.1080p.BluRay.x264-JustWatch&tr=http%3A%2F%2Ftracker.trackerfix.com%3A80%2Fannounce&tr=udp%3A%2F%2F9.rarbg.me%3A2730&tr=udp%3A%2F%2F9.rarbg.to%3A2720

本帖子中包含更多资源

您需要 登录 才可以下载或查看,没有帐号?立即注册

x

1

主题

1796

帖子

2343

积分

赤血神龙

Rank: 20Rank: 20Rank: 20Rank: 20

积分
2343
发表于 2020-2-24 04:13:37 | 显示全部楼层
谢谢分享,温暖好电影。

1

主题

1796

帖子

2343

积分

赤血神龙

Rank: 20Rank: 20Rank: 20Rank: 20

积分
2343
发表于 2020-2-24 04:14:02 | 显示全部楼层
谢谢分享,温暖好电影。

21

主题

1万

帖子

1万

积分

神界龙王

Rank: 30Rank: 30Rank: 30Rank: 30

积分
14159
发表于 2020-2-24 11:24:21 | 显示全部楼层
谢谢楼主分享精彩影片,辛苦了

1

主题

1162

帖子

1504

积分

神龙

Rank: 15Rank: 15Rank: 15

积分
1504
发表于 2020-2-24 14:45:24 | 显示全部楼层
好喜欢的资源,好喜欢楼主

2

主题

3万

帖子

4万

积分

升龙霸·VIP

Rank: 22Rank: 22Rank: 22Rank: 22

积分
43680

龙网爱心勋章龙网VIP·银牌

发表于 2020-2-24 23:22:02 | 显示全部楼层
谢谢楼主发片

0

主题

1545

帖子

2380

积分

赤血神龙

Rank: 20Rank: 20Rank: 20Rank: 20

积分
2380

龙网爱心勋章

发表于 2020-2-25 13:38:38 | 显示全部楼层
谢谢楼主发片

0

主题

13

帖子

30

积分

泡泡龙

Rank: 5Rank: 5Rank: 5

积分
30
发表于 2020-2-26 16:38:00 | 显示全部楼层
谢谢楼主分享精彩影片,辛苦了

1

主题

5188

帖子

7091

积分

升龙霸·VIP

Rank: 22Rank: 22Rank: 22Rank: 22

积分
7091

龙网VIP·银星龙网VIP·银徽龙网VIP·银牌

发表于 2020-2-28 21:40:12 | 显示全部楼层
谢谢楼主分享

1

主题

1796

帖子

2343

积分

赤血神龙

Rank: 20Rank: 20Rank: 20Rank: 20

积分
2343
发表于 2020-3-5 02:22:47 | 显示全部楼层
谢谢楼主发片

1

主题

1796

帖子

2343

积分

赤血神龙

Rank: 20Rank: 20Rank: 20Rank: 20

积分
2343
发表于 2020-3-9 01:01:19 | 显示全部楼层
感谢楼主的分享

1

主题

27

帖子

155

积分

龙之子

Rank: 8Rank: 8Rank: 8Rank: 8

积分
155
发表于 2020-3-10 15:45:16 | 显示全部楼层
有没有字幕啊,没有字幕就看不懂了

1

主题

1162

帖子

1504

积分

神龙

Rank: 15Rank: 15Rank: 15

积分
1504
发表于 2020-3-19 09:58:11 | 显示全部楼层
感谢楼主 分享经典影片
您需要登录后才可以回帖 登录 | 立即注册

本版积分规则

小黑屋|梦幻天堂·龙网

GMT+8, 2020-4-2 14:17 , Processed in 0.148368 second(s), 21 queries , Gzip On.

Powered by Discuz! X3.2

© 2001-2013 Comsenz Inc.

快速回复 返回顶部 返回列表