梦幻天堂·龙网

 找回密码
 立即注册
查看: 433|回复: 11

[1080p] [惊悚]父亲的遗愿.2020.1080p.NF.WEBRip.DDP5.1.x264-NTG 3.86 GB 英语简繁中字

[复制链接]

6548

主题

8645

帖子

1万

积分

神界龙王

Rank: 30Rank: 30Rank: 30Rank: 30

积分
18541

龙网爱心勋章

发表于 2020-2-23 17:59:51 | 显示全部楼层 |阅读模式

导演: 迪·里斯
编剧: 迪·里斯 / 琼·迪丹 / Marco Villalobos
主演: 安妮·海瑟薇 / 本·阿弗莱克 / 威廉·达福 / 梅尔·罗德里格斯 / 托比·琼斯 / 罗茜·佩雷兹 / 艾迪·盖瑟吉 / 阿娜塔·阿普洛 / 劳拉·尼米 / 戴维瓦蒂姆 / 卡洛斯·李尔 / 布赖恩·泰斯特 / 瑞奇·韦恩 / 米莉鲁佩托 / 亚当·霍斯 / 奥马尔·克鲁兹·索托 / 路易斯·O·罗萨多 / 伊万·J·托雷斯·拉桑塔 / Bill Kelly / Glenn Cutler / Steve Heinz
类型: 剧情 / 悬疑 / 惊悚 / 犯罪
制片国家/地区: 美国
语言: 英语
字幕: 简繁中字
格式: mkv
BT种子特征码: 894C106BC7543841FD14F7BD1D0A6C4A8AB956B1
上映日期: 2020-01-27(圣丹斯电影节) / 2020-02-21(美国网络)
片长: 115分钟
又名: 遗愿 / 他的最后愿望 / 他最后想要的东西
IMDb链接: tt7456312


父亲的遗愿的剧情简介 · · · · · ·
  安妮·海瑟薇商谈参演[他最后想要的东西](The Last Thing He Wanted,暂译)。该片根据琼·迪迪恩1996年同名小说改编,迪·里斯([泥土之界])执导。影片故事讲述一位名叫埃琳娜•麦克马宏的记者放弃对1984年总统竞选活动的报道,而为了实现父亲的意愿,她决定报道伊朗毒品交易的新闻。





父亲的遗愿.The.Last.Thing.He.Wanted.2020.1080p.NF.WEBRip.DDP5.1.x264-NTG 3.86 GB 英语简繁中字
Video
ID : 1
Format : AVC
Format/Info : Advanced Video Codec
Format profile : Main@L4
Format settings : CABAC / 3 Ref Frames
Format settings, CABAC : Yes
Format settings, Reference frames : 3 frames
Codec ID : V_MPEG4/ISO/AVC
Duration : 1 h 55 min
Bit rate mode : Variable
Bit rate : 4 220 kb/s
Maximum bit rate : 6 330 kb/s
Width : 1 920 pixels
Height : 1 080 pixels
Display aspect ratio : 16:9
Frame rate mode : Constant
Frame rate : 24.000 FPS
Color space : YUV
Chroma subsampling : 4:2:0
Bit depth : 8 bits
Scan type : Progressive
Bits/(Pixel*Frame) : 0.085
Stream size : 3.33 GiB (86%)
Writing library : x264 core 148 r2715 7e75228
Encoding settings : cabac=1 / ref=3 / deblock=1:0:0 / analyse=0x1:0x111 / me=umh / subme=10 / psy=1 / psy_rd=1.00:0.00 / mixed_ref=1 / me_range=24 / chroma_me=1 / trellis=2 / 8x8dct=0 / cqm=0 / deadzone=21,11 / fast_pskip=1 / chroma_qp_offset=-2 / threads=8 / lookahead_threads=1 / sliced_threads=0 / nr=0 / decimate=1 / interlaced=0 / bluray_compat=0 / stitchable=1 / constrained_intra=0 / bframes=2 / b_pyramid=0 / b_adapt=2 / b_bias=0 / direct=3 / weightb=1 / open_gop=0 / weightp=2 / keyint=250 / keyint_min=24 / scenecut=0 / intra_refresh=0 / rc_lookahead=48 / rc=2pass / mbtree=1 / bitrate=4220 / ratetol=1.0 / qcomp=0.50 / qpmin=6 / qpmax=51 / qpstep=4 / cplxblur=20.0 / qblur=0.5 / vbv_maxrate=6330 / vbv_bufsize=8440 / nal_hrd=vbr / filler=0 / ip_ratio=1.40 / aq=1:1.00
Default : Yes
Forced : No

Audio
ID : 2
Format : E-AC-3
Format/Info : Enhanced AC-3
Commercial name : Dolby Digital Plus
Codec ID : A_EAC3
Duration : 1 h 55 min
Bit rate mode : Constant
Bit rate : 640 kb/s
Channel(s) : 6 channels
Channel layout : L R C LFE Ls Rs
Sampling rate : 48.0 kHz
Frame rate : 31.250 FPS (1536 SPF)
Compression mode : Lossy
Stream size : 530 MiB (13%)
Title : English
Language : English
Service kind : Complete Main
Default : Yes
Forced : No

Text #1
ID : 3
Format : UTF-8
Codec ID : S_TEXT/UTF8
Codec ID/Info : UTF-8 Plain Text
Duration : 1 min 16 s
Bit rate : 62 b/s
Count of elements : 18
Stream size : 595 Bytes (0%)
Title : Forced
Language : English
Default : Yes
Forced : Yes

Text #2
ID : 4
Format : UTF-8
Codec ID : S_TEXT/UTF8
Codec ID/Info : UTF-8 Plain Text
Duration : 1 h 45 min
Bit rate : 76 b/s
Count of elements : 1686
Stream size : 59.1 KiB (0%)
Language : English
Default : No
Forced : No

Text #3
ID : 5
Format : UTF-8
Codec ID : S_TEXT/UTF8
Codec ID/Info : UTF-8 Plain Text
Duration : 1 h 49 min
Bit rate : 82 b/s
Count of elements : 1923
Stream size : 66.0 KiB (0%)
Title : SDH
Language : English
Default : No
Forced : No

Text #4
ID : 6
Format : UTF-8
Codec ID : S_TEXT/UTF8
Codec ID/Info : UTF-8 Plain Text
Duration : 1 h 47 min
Bit rate : 114 b/s
Count of elements : 1640
Stream size : 90.4 KiB (0%)
Language : Arabic
Default : No
Forced : No

Text #5
ID : 7
Format : UTF-8
Codec ID : S_TEXT/UTF8
Codec ID/Info : UTF-8 Plain Text
Duration : 1 h 47 min
Bit rate : 68 b/s
Count of elements : 1598
Stream size : 54.0 KiB (0%)
Language : Czech
Default : No
Forced : No

Text #6
ID : 8
Format : UTF-8
Codec ID : S_TEXT/UTF8
Codec ID/Info : UTF-8 Plain Text
Duration : 1 h 47 min
Bit rate : 66 b/s
Count of elements : 1657
Stream size : 52.6 KiB (0%)
Language : Danish
Default : No
Forced : No

Text #7
ID : 9
Format : UTF-8
Codec ID : S_TEXT/UTF8
Codec ID/Info : UTF-8 Plain Text
Duration : 1 h 54 min
Bit rate : 63 b/s
Count of elements : 1509
Stream size : 53.5 KiB (0%)
Language : German
Default : No
Forced : No

Text #8
ID : 10
Format : UTF-8
Codec ID : S_TEXT/UTF8
Codec ID/Info : UTF-8 Plain Text
Duration : 1 h 47 min
Bit rate : 105 b/s
Count of elements : 1710
Stream size : 83.6 KiB (0%)
Language : Greek
Default : No
Forced : No

Text #9
ID : 11
Format : UTF-8
Codec ID : S_TEXT/UTF8
Codec ID/Info : UTF-8 Plain Text
Duration : 1 h 47 min
Bit rate : 67 b/s
Count of elements : 1621
Stream size : 53.5 KiB (0%)
Language : Spanish
Default : No
Forced : No

Text #10
ID : 12
Format : UTF-8
Codec ID : S_TEXT/UTF8
Codec ID/Info : UTF-8 Plain Text
Duration : 1 h 47 min
Bit rate : 62 b/s
Count of elements : 1598
Stream size : 49.5 KiB (0%)
Title : European
Language : Spanish
Default : No
Forced : No

Text #11
ID : 13
Format : UTF-8
Codec ID : S_TEXT/UTF8
Codec ID/Info : UTF-8 Plain Text
Duration : 1 h 47 min
Bit rate : 54 b/s
Count of elements : 1076
Stream size : 43.1 KiB (0%)
Language : Finnish
Default : No
Forced : No

Text #12
ID : 14
Format : UTF-8
Codec ID : S_TEXT/UTF8
Codec ID/Info : UTF-8 Plain Text
Duration : 1 h 47 min
Bit rate : 65 b/s
Count of elements : 1642
Stream size : 51.6 KiB (0%)
Language : French
Default : No
Forced : No

Text #13
ID : 15
Format : UTF-8
Codec ID : S_TEXT/UTF8
Codec ID/Info : UTF-8 Plain Text
Duration : 1 h 47 min
Bit rate : 104 b/s
Count of elements : 1617
Stream size : 82.7 KiB (0%)
Language : Hebrew
Default : No
Forced : No

Text #14
ID : 16
Format : UTF-8
Codec ID : S_TEXT/UTF8
Codec ID/Info : UTF-8 Plain Text
Duration : 1 h 47 min
Bit rate : 167 b/s
Count of elements : 1666
Stream size : 132 KiB (0%)
Language : Hindi
Default : No
Forced : No

Text #15
ID : 17
Format : UTF-8
Codec ID : S_TEXT/UTF8
Codec ID/Info : UTF-8 Plain Text
Duration : 1 h 47 min
Bit rate : 70 b/s
Count of elements : 1442
Stream size : 55.6 KiB (0%)
Language : Hungarian
Default : No
Forced : No

Text #16
ID : 18
Format : UTF-8
Codec ID : S_TEXT/UTF8
Codec ID/Info : UTF-8 Plain Text
Duration : 1 h 47 min
Bit rate : 67 b/s
Count of elements : 1618
Stream size : 53.1 KiB (0%)
Language : Indonesian
Default : No
Forced : No

Text #17
ID : 19
Format : UTF-8
Codec ID : S_TEXT/UTF8
Codec ID/Info : UTF-8 Plain Text
Duration : 1 h 47 min
Bit rate : 61 b/s
Count of elements : 1581
Stream size : 48.8 KiB (0%)
Language : Italian
Default : No
Forced : No

Text #18
ID : 20
Format : UTF-8
Codec ID : S_TEXT/UTF8
Codec ID/Info : UTF-8 Plain Text
Duration : 1 h 47 min
Bit rate : 67 b/s
Count of elements : 1569
Stream size : 53.4 KiB (0%)
Language : Japanese
Default : No
Forced : No

Text #19
ID : 21
Format : UTF-8
Codec ID : S_TEXT/UTF8
Codec ID/Info : UTF-8 Plain Text
Duration : 1 h 47 min
Bit rate : 86 b/s
Count of elements : 1725
Stream size : 68.5 KiB (0%)
Language : Korean
Default : No
Forced : No

Text #20
ID : 22
Format : UTF-8
Codec ID : S_TEXT/UTF8
Codec ID/Info : UTF-8 Plain Text
Duration : 1 h 47 min
Bit rate : 61 b/s
Count of elements : 1348
Stream size : 48.2 KiB (0%)
Language : Norwegian Bokmal
Default : No
Forced : No

Text #21
ID : 23
Format : UTF-8
Codec ID : S_TEXT/UTF8
Codec ID/Info : UTF-8 Plain Text
Duration : 1 h 47 min
Bit rate : 61 b/s
Count of elements : 1242
Stream size : 48.2 KiB (0%)
Language : Dutch
Default : No
Forced : No

Text #22
ID : 24
Format : UTF-8
Codec ID : S_TEXT/UTF8
Codec ID/Info : UTF-8 Plain Text
Duration : 1 h 54 min
Bit rate : 55 b/s
Count of elements : 1548
Stream size : 46.7 KiB (0%)
Language : Polish
Default : No
Forced : No

Text #23
ID : 25
Format : UTF-8
Codec ID : S_TEXT/UTF8
Codec ID/Info : UTF-8 Plain Text
Duration : 1 h 47 min
Bit rate : 63 b/s
Count of elements : 1407
Stream size : 49.8 KiB (0%)
Language : Portuguese
Default : No
Forced : No

Text #24
ID : 26
Format : UTF-8
Codec ID : S_TEXT/UTF8
Codec ID/Info : UTF-8 Plain Text
Duration : 1 h 47 min
Bit rate : 66 b/s
Count of elements : 1667
Stream size : 52.3 KiB (0%)
Title : Brazilian
Language : Portuguese
Default : No
Forced : No

Text #25
ID : 27
Format : UTF-8
Codec ID : S_TEXT/UTF8
Codec ID/Info : UTF-8 Plain Text
Duration : 1 h 47 min
Bit rate : 77 b/s
Count of elements : 1628
Stream size : 61.5 KiB (0%)
Language : Romanian
Default : No
Forced : No

Text #26
ID : 28
Format : UTF-8
Codec ID : S_TEXT/UTF8
Codec ID/Info : UTF-8 Plain Text
Duration : 1 h 47 min
Bit rate : 109 b/s
Count of elements : 1634
Stream size : 86.8 KiB (0%)
Language : Russian
Default : No
Forced : No

Text #27
ID : 29
Format : UTF-8
Codec ID : S_TEXT/UTF8
Codec ID/Info : UTF-8 Plain Text
Duration : 1 h 47 min
Bit rate : 64 b/s
Count of elements : 1344
Stream size : 50.6 KiB (0%)
Language : Swedish
Default : No
Forced : No

Text #28
ID : 30
Format : UTF-8
Codec ID : S_TEXT/UTF8
Codec ID/Info : UTF-8 Plain Text
Duration : 1 h 47 min
Bit rate : 150 b/s
Count of elements : 1668
Stream size : 119 KiB (0%)
Language : Thai
Default : No
Forced : No

Text #29
ID : 31
Format : UTF-8
Codec ID : S_TEXT/UTF8
Codec ID/Info : UTF-8 Plain Text
Duration : 1 h 47 min
Bit rate : 66 b/s
Count of elements : 1526
Stream size : 52.5 KiB (0%)
Language : Turkish
Default : No
Forced : No

Text #30
ID : 32
Format : UTF-8
Codec ID : S_TEXT/UTF8
Codec ID/Info : UTF-8 Plain Text
Duration : 1 h 47 min
Bit rate : 85 b/s
Count of elements : 1659
Stream size : 67.5 KiB (0%)
Language : Vietnamese
Default : No
Forced : No

Text #31
ID : 33
Format : UTF-8
Codec ID : S_TEXT/UTF8
Codec ID/Info : UTF-8 Plain Text
Duration : 1 h 47 min
Bit rate : 69 b/s
Count of elements : 1668
Stream size : 54.8 KiB (0%)
Title : Simplified
Language : Chinese
Default : No
Forced : No

Text #32
ID : 34
Format : UTF-8
Codec ID : S_TEXT/UTF8
Codec ID/Info : UTF-8 Plain Text
Duration : 1 h 47 min
Bit rate : 66 b/s
Count of elements : 1672
Stream size : 52.3 KiB (0%)
Title : Traditional
Language : Chinese
Default : No
Forced : No



磁力链接:
magnet:?xt=urn:btih:894c106bc7543841fd14f7bd1d0a6c4a8ab956b1&dn=The.Last.Thing.He.Wanted.2020.1080p.NF.WEBRip.DDP5.1.x264-NTG&tr=http%3A%2F%2Ftracker.trackerfix.com%3A80%2Fannounce&tr=udp%3A%2F%2F9.rarbg.me%3A2750&tr=udp%3A%2F%2F9.rarbg.to%3A2710

本帖子中包含更多资源

您需要 登录 才可以下载或查看,没有帐号?立即注册

x

21

主题

1万

帖子

1万

积分

神界龙王

Rank: 30Rank: 30Rank: 30Rank: 30

积分
14159
发表于 2020-2-24 11:24:07 | 显示全部楼层
谢谢楼主分享精彩影片,辛苦了

2

主题

3万

帖子

4万

积分

升龙霸·VIP

Rank: 22Rank: 22Rank: 22Rank: 22

积分
43680

龙网爱心勋章龙网VIP·银牌

发表于 2020-2-24 23:21:52 | 显示全部楼层
谢谢楼主发片

0

主题

491

帖子

544

积分

升龙霸·VIP

Rank: 22Rank: 22Rank: 22Rank: 22

积分
544

赞助会员 LV1

发表于 2020-2-26 20:15:09 | 显示全部楼层
感谢楼主分享

0

主题

491

帖子

544

积分

升龙霸·VIP

Rank: 22Rank: 22Rank: 22Rank: 22

积分
544

赞助会员 LV1

发表于 2020-2-26 20:15:24 | 显示全部楼层
感谢楼主分享

1

主题

1796

帖子

2343

积分

赤血神龙

Rank: 20Rank: 20Rank: 20Rank: 20

积分
2343
发表于 2020-3-5 02:22:36 | 显示全部楼层
谢谢楼主发片

0

主题

354

帖子

864

积分

龙的传人

Rank: 13Rank: 13Rank: 13

积分
864
发表于 2020-3-5 12:14:27 | 显示全部楼层

感谢航子发片

0

主题

263

帖子

385

积分

龙少爷

Rank: 10Rank: 10

积分
385
发表于 2020-3-5 16:13:14 | 显示全部楼层
看起来不是很好看,还是感谢分享

1

主题

1796

帖子

2343

积分

赤血神龙

Rank: 20Rank: 20Rank: 20Rank: 20

积分
2343
发表于 2020-3-9 01:00:46 | 显示全部楼层
感谢楼主的分享

1

主题

1796

帖子

2343

积分

赤血神龙

Rank: 20Rank: 20Rank: 20Rank: 20

积分
2343
发表于 2020-3-9 01:00:56 | 显示全部楼层
感谢楼主的分享

1

主题

416

帖子

1025

积分

神龙

Rank: 15Rank: 15Rank: 15

积分
1025
发表于 2020-3-9 22:44:01 | 显示全部楼层
谢谢楼主分享

1

主题

1162

帖子

1504

积分

神龙

Rank: 15Rank: 15Rank: 15

积分
1504
发表于 2020-3-19 09:57:55 | 显示全部楼层
感谢楼主 分享经典影片
您需要登录后才可以回帖 登录 | 立即注册

本版积分规则

小黑屋|梦幻天堂·龙网

GMT+8, 2020-4-2 14:59 , Processed in 0.261164 second(s), 21 queries , Gzip On.

Powered by Discuz! X3.2

© 2001-2013 Comsenz Inc.

快速回复 返回顶部 返回列表