梦幻天堂·龙网

 找回密码
 立即注册
查看: 639|回复: 9

[1080p] [喜剧]虫虫危机.1998.iNTERNAL.HDR.2160p.WEB.H265-WATCHER 11.18 GB

[复制链接]

6548

主题

8645

帖子

1万

积分

神界龙王

Rank: 30Rank: 30Rank: 30Rank: 30

积分
18541

龙网爱心勋章

发表于 2020-2-23 18:04:42 | 显示全部楼层 |阅读模式

导演: 约翰·拉塞特 / 安德鲁·斯坦顿
编剧: 安德鲁·斯坦顿 / 唐·麦肯内里 / 鲍勃·肖
主演: 大卫·弗利 / 凯文·史派西 / 茱莉亚·路易斯-德瑞弗斯 / 海顿·潘妮蒂尔
类型: 喜剧 / 动画 / 冒险
制片国家/地区: 美国
语言: 英语
上映日期: 1998-11-25(美国)
片长: 95 分钟
又名: 虫虫特工队
IMDb链接: tt0120623


虫虫危机的剧情简介 · · · · · ·
  菲力在蚂蚁王国里并不怎么受欢迎,尽管他发明了先进的收割机,然而阴差阳错,他竟然惹了大祸,公主妹妹小不点因此被蝗虫敌人捉去,而且蚂蚁的粮食也受到了蝗虫的威胁。即使菲力救出了小不点,但还是被赶出蚂蚁王国。只有他在外面的世界找到了对付蝗虫的办法,才有可能回到家园。
  菲力在城市中遇到了马戏团的一队昆虫。爬虫、蝴蝶、瓢虫、臭虫,他们都似乎身怀绝技,令菲力十分兴奋,于是菲力把他们请回蚂蚁王国对付蝗虫。一场恶战即将开始,昆虫们愈战愈勇,和菲力一同投入到斗争中。智勇双全的菲力也终于回到了蚂蚁王国中,受到大伙儿的赞赏。


虫虫危机 A Bug's Life 获奖情况
第71届奥斯卡金像奖  (1999)
音乐/喜剧片最佳原创配乐(提名) 兰迪·纽曼
第53届英国电影学院奖  (2000)
电影奖 最佳特殊视觉效果(提名) Eben Ostby / Bill Reeves / Rick Sayre / Sharon Calahan
第27届动画安妮奖  (1999)
最佳动画长片(提名)
最佳导演(提名) 安德鲁·斯坦顿 / 约翰·拉塞特
最佳编剧(提名) 唐·麦肯内里 / 安德鲁·斯坦顿 / Bob Shaw / 约翰·拉塞特 / 乔·兰福特
最佳艺术指导(提名) William Cone





虫虫危机.A.Bugs.Life.1998.iNTERNAL.HDR.2160p.WEB.H265-WATCHER 11.18 GB
Video
ID : 1
Format : HEVC
Format/Info : High Efficiency Video Coding
Format profile : Main 10@L5@High
Codec ID : V_MPEGH/ISO/HEVC
Duration : 1 h 37 min
Bit rate : 15.9 Mb/s
Width : 3 840 pixels
Height : 2 160 pixels
Display aspect ratio : 16:9
Frame rate mode : Constant
Frame rate : 23.976 (24000/1001) FPS
Color space : YUV
Chroma subsampling : 4:2:0
Bit depth : 10 bits
Bits/(Pixel*Frame) : 0.080
Stream size : 10.9 GiB (98%)
Default : Yes
Forced : No
Color range : Limited
Color primaries : BT.2020
Transfer characteristics : PQ
Matrix coefficients : BT.2020 non-constant

Audio
ID : 2
Format : E-AC-3
Format/Info : Enhanced AC-3
Commercial name : Dolby Digital Plus
Codec ID : A_EAC3
Duration : 1 h 37 min
Bit rate mode : Constant
Bit rate : 256 kb/s
Channel(s) : 6 channels
Channel layout : L R C LFE Ls Rs
Sampling rate : 48.0 kHz
Frame rate : 31.250 FPS (1536 SPF)
Compression mode : Lossy
Stream size : 179 MiB (2%)
Title : English
Language : English
Service kind : Complete Main
Default : Yes
Forced : No



磁力链接:
magnet:?xt=urn:btih:f0b9baff7c86279dc173cbb3b1952a3d4c5dd0f7&dn=A.Bugs.Life.1998.iNTERNAL.HDR.2160p.WEB.H265-WATCHER&tr=http%3A%2F%2Ftracker.trackerfix.com%3A80%2Fannounce&tr=udp%3A%2F%2F9.rarbg.me%3A2720&tr=udp%3A%2F%2F9.rarbg.to%3A2770

本帖子中包含更多资源

您需要 登录 才可以下载或查看,没有帐号?立即注册

x

21

主题

1万

帖子

1万

积分

神界龙王

Rank: 30Rank: 30Rank: 30Rank: 30

积分
14159
发表于 2020-2-24 11:23:50 | 显示全部楼层
谢谢楼主分享精彩影片,辛苦了

1

主题

1162

帖子

1504

积分

神龙

Rank: 15Rank: 15Rank: 15

积分
1504
发表于 2020-2-24 14:45:00 | 显示全部楼层
看了这个,心情好

2

主题

3万

帖子

4万

积分

升龙霸·VIP

Rank: 22Rank: 22Rank: 22Rank: 22

积分
43680

龙网爱心勋章龙网VIP·银牌

发表于 2020-2-24 23:21:41 | 显示全部楼层
谢谢楼主发片

0

主题

31

帖子

44

积分

泡泡龙

Rank: 5Rank: 5Rank: 5

积分
44
发表于 2020-2-25 17:32:55 | 显示全部楼层
这个也算是老电影了。

0

主题

15

帖子

35

积分

泡泡龙

Rank: 5Rank: 5Rank: 5

积分
35
发表于 2020-2-25 19:45:25 | 显示全部楼层
谢谢楼主分享精彩影片,辛苦了

0

主题

33

帖子

70

积分

龙之子

Rank: 8Rank: 8Rank: 8Rank: 8

积分
70
发表于 2020-2-27 18:41:55 | 显示全部楼层
可惜不是中文的

1

主题

42

帖子

96

积分

龙之子

Rank: 8Rank: 8Rank: 8Rank: 8

积分
96
发表于 2020-3-2 15:41:56 | 显示全部楼层
谢谢分享,支持一下~~~~~~~~~~~~~~~~~

1

主题

1796

帖子

2343

积分

赤血神龙

Rank: 20Rank: 20Rank: 20Rank: 20

积分
2343
发表于 2020-3-5 02:22:24 | 显示全部楼层
谢谢楼主发片

1

主题

1162

帖子

1504

积分

神龙

Rank: 15Rank: 15Rank: 15

积分
1504
发表于 2020-3-19 09:57:33 | 显示全部楼层
感谢楼主 分享经典影片
您需要登录后才可以回帖 登录 | 立即注册

本版积分规则

小黑屋|梦幻天堂·龙网

GMT+8, 2020-4-2 15:45 , Processed in 0.179428 second(s), 21 queries , Gzip On.

Powered by Discuz! X3.2

© 2001-2013 Comsenz Inc.

快速回复 返回顶部 返回列表