梦幻天堂·龙网

 找回密码
 立即注册
查看: 398|回复: 5

[原盘remux] [剧情]凯利帮的真实历史.of.the.Kelly.Gang.2019.HDR.2160p.WEB.H265-PETRiFiED 9....

[复制链接]

6548

主题

8645

帖子

1万

积分

神界龙王

Rank: 30Rank: 30Rank: 30Rank: 30

积分
18541

龙网爱心勋章

发表于 2020-3-7 19:45:19 | 显示全部楼层 |阅读模式

导演: 贾斯汀·库泽尔
编剧: 肖恩·格兰特 / 彼得·凯里
主演: 乔治·麦凯 / 埃茜·戴维斯 / 尼古拉斯·霍尔特 / Orlando Schwerdt / 托马辛·麦肯齐 / 肖恩·基南 / 厄尔·凯夫 / 马龙·威廉姆斯 / Louis Hewison / 查理·汉纳姆 / 罗素·克劳 / James Ao / Sarah Bedak / Josephine Blazier / 艾米·克里斯蒂安 / 雅各布·柯林斯-莱维 / 哈利·格林伍德 / 克劳迪娅·卡万 / 马凯拉·卡维纳赫
类型: 剧情 / 传记 / 犯罪
制片国家/地区: 英国 / 法国 / 澳大利亚
语言: 英语 / 拉丁语
上映日期: 2019-09-11(多伦多电影节) / 2020-01-09(澳大利亚)
片长: 124分钟
IMDb链接: tt4844140


凯利帮的真实历史的剧情简介 · · · · · ·
  罗素·克劳、尼古拉斯·霍尔特、乔治·麦凯、艾斯·戴维斯加盟传记犯罪剧情新片《凯利帮的真实历史》(The True History of the Kelly Gang),贾斯汀·库泽尔(《麦克白》《刺客信条》)执导,明年三月澳大利亚开拍。
  肖恩·格兰特(《贾斯珀·琼斯》《柏林综合症》)编写剧本,基于Peter Carey所著同名布克奖获奖小说,讲述澳大利亚绿林好汉Edward "Ned" Kelly传奇的一生。凯利被公认为是最后一个,也是最著名的绿林好汉。因家庭遭遇变故而流亡澳大利亚,他和弟弟以及好友一起建立了“凯利帮”,反抗暴警和政府,在此期间谋杀了数名警官。他在人生中的最后大战中穿着防弹装甲与警察展开了激烈的枪战,身受重伤,成为唯一生还者,被关进墨尔本的监狱,于1880年被处以绞刑,年仅25岁。
  崔维斯·费米尔、肖恩·基南、达克雷·蒙特戈梅里(《怪奇物语》《恐龙战队》)、哈利·格林伍德、Thomasin McKenzie、Earl Cave等参演,Liz Watts、Hal Vogel、Brad Feinstein制片。





Video
ID : 1
Format : HEVC
Format/Info : High Efficiency Video Coding
Format profile : Main 10@L5@Main
HDR format : SMPTE ST 2086, HDR10 compatible
Codec ID : V_MPEGH/ISO/HEVC
Duration : 2 h 5 min
Bit rate : 10.5 Mb/s
Width : 3 840 pixels
Height : 2 160 pixels
Display aspect ratio : 16:9
Frame rate mode : Constant
Frame rate : 24.000 FPS
Color space : YUV
Chroma subsampling : 4:2:0
Bit depth : 10 bits
Bits/(Pixel*Frame) : 0.053
Stream size : 9.20 GiB (94%)
Language : English
Default : Yes
Forced : No
Color range : Limited
Color primaries : BT.2020
Transfer characteristics : PQ
Matrix coefficients : BT.2020 non-constant
Mastering display color primaries : Display P3
Mastering display luminance : min: 0.0001 cd/m2, max: 1000 cd/m2
Statistics Tags Issue : no_variable_data 1970-01-01 00:00:00 / no_variable_data 2010-02-22 21:41:29
FromStats_BitRate : 10742081
FromStats_Duration : 02:05:10.000000000
FromStats_FrameCount : 180240
FromStats_StreamSize : 10084129029

Audio
ID : 2
Format : E-AC-3
Format/Info : Enhanced AC-3
Commercial name : Dolby Digital Plus
Codec ID : A_EAC3
Duration : 2 h 5 min
Bit rate mode : Constant
Bit rate : 448 kb/s
Channel(s) : 6 channels
Channel layout : L R C LFE Ls Rs
Sampling rate : 48.0 kHz
Frame rate : 31.250 FPS (1536 SPF)
Compression mode : Lossy
Stream size : 401 MiB (4%)
Language : English
Service kind : Complete Main
Default : Yes
Forced : No
Statistics Tags Issue : no_variable_data 1970-01-01 00:00:00 / no_variable_data 2010-02-22 21:41:29
FromStats_BitRate : 448000
FromStats_Duration : 02:05:10.016000000
FromStats_FrameCount : 234688
FromStats_StreamSize : 420560896

Text
ID : 3
Format : UTF-8
Codec ID : S_TEXT/UTF8
Codec ID/Info : UTF-8 Plain Text
Title : English (SDH)
Language : English
Default : No
Forced : No
Statistics Tags Issue : no_variable_data 1970-01-01 00:00:00 / no_variable_data 2010-02-22 21:41:29
FromStats_BitRate : 59
FromStats_Duration : 02:00:19.853000000
FromStats_FrameCount : 1742
FromStats_StreamSize : 53631



磁力链接:
magnet:?xt=urn:btih:c5155d8b6bf7d34a500d3d20162f5e9e37137784&dn=True.History.of.the.Kelly.Gang.2019.HDR.2160p.WEB.H265-PETRiFiED&tr=http%3A%2F%2Ftracker.trackerfix.com%3A80%2Fannounce&tr=udp%3A%2F%2F9.rarbg.me%3A2790&tr=udp%3A%2F%2F9.rarbg.to%3A2730

本帖子中包含更多资源

您需要 登录 才可以下载或查看,没有帐号?立即注册

x

2

主题

3万

帖子

4万

积分

升龙霸·VIP

Rank: 22Rank: 22Rank: 22Rank: 22

积分
43680

龙网爱心勋章龙网VIP·银牌

发表于 2020-3-7 20:28:28 | 显示全部楼层
谢谢楼主发片

1

主题

5188

帖子

7091

积分

升龙霸·VIP

Rank: 22Rank: 22Rank: 22Rank: 22

积分
7091

龙网VIP·银星龙网VIP·银徽龙网VIP·银牌

发表于 2020-3-8 10:50:21 | 显示全部楼层

感谢楼主的分享

1

主题

1796

帖子

2343

积分

赤血神龙

Rank: 20Rank: 20Rank: 20Rank: 20

积分
2343
发表于 2020-3-9 00:59:22 | 显示全部楼层
感谢楼主的分享

21

主题

1万

帖子

1万

积分

神界龙王

Rank: 30Rank: 30Rank: 30Rank: 30

积分
14159
发表于 2020-3-9 14:02:21 | 显示全部楼层
谢谢楼主分享精彩影片

1

主题

1162

帖子

1504

积分

神龙

Rank: 15Rank: 15Rank: 15

积分
1504
发表于 2020-3-19 09:56:45 | 显示全部楼层
感谢楼主 分享经典影片
您需要登录后才可以回帖 登录 | 立即注册

本版积分规则

小黑屋|梦幻天堂·龙网

GMT+8, 2020-4-2 13:58 , Processed in 0.119974 second(s), 21 queries , Gzip On.

Powered by Discuz! X3.2

© 2001-2013 Comsenz Inc.

快速回复 返回顶部 返回列表