梦幻天堂·龙网

 找回密码
 立即注册
查看: 371|回复: 5

[1080p] [动作]大尾鲈鳗2.2016.CHINESE.1080p.BluRay.x264.DTS-qqboy1017 7....

[复制链接]

6548

主题

8645

帖子

1万

积分

神界龙王

Rank: 30Rank: 30Rank: 30Rank: 30

积分
18541

龙网爱心勋章

发表于 2020-3-7 19:47:46 | 显示全部楼层 |阅读模式

导演: 邱瓈宽
编剧: 邱瓈宽 / 朱延平 / 彭幼芳 / 杨宗宪
主演: 郭采洁 / 杨祐宁 / 曾志伟 / 猪哥亮 / 苗可丽 / 连静雯 / 康晋荣 / 刘俊纬 / 张芯瑜 / 萧唯曦 / 钱君仲 / 陈博正 / 素珠 / 林美秀 / 王彩桦 / 林小楼 / 吕雪凤 / 邱逸峰 / 汤尼陈 / 应蔚民 / 陈慕义 / 黄子佼
类型: 剧情 / 喜剧 / 动作 / 爱情
制片国家/地区: 中国台湾
语言: 汉语普通话 / 闽南语
上映日期: 2016-02-05(中国台湾) / 2017-06-23(中国大陆)
片长: 102分钟(台湾) / 93分钟(中国大陆)
又名: 大尾鲈鳗2 / David Loman 2
IMDb链接: tt6075688


我不做大哥好多年的剧情简介 · · · · · ·
  故事讲述了朱大德本已退隐江湖,到乡下开民宿,无奈道上兄弟仍来纠缠,始终如影随形,最后被逼的重出江湖,连带把女儿朱小芹、女婿小贺也牵扯进来。而小贺与朱小芹虽“已结了婚”(一直没办过婚礼)并生了小胖,却因误会不断,令朱小芹气的想离家出走......






Video
ID : 1
Format : AVC
Format/Info : Advanced Video Codec
Format profile : High@L4.1
Format settings : CABAC / 5 Ref Frames
Format settings, CABAC : Yes
Format settings, Reference frames : 5 frames
Codec ID : V_MPEG4/ISO/AVC
Duration : 1 h 41 min
Bit rate : 10.4 Mb/s
Width : 1 920 pixels
Height : 804 pixels
Display aspect ratio : 2.40:1
Frame rate mode : Constant
Frame rate : 24.000 FPS
Color space : YUV
Chroma subsampling : 4:2:0
Bit depth : 8 bits
Scan type : Progressive
Bits/(Pixel*Frame) : 0.282
Stream size : 7.40 GiB (93%)
Writing library : x264 core 148 r2692+46 0f71ed5 7mod [8-bit@all X86_64]
Encoding settings : cabac=1 / ref=5 / deblock=1:-3:-3 / analyse=0x3:0x113 / me=umh / subme=11 / psy=1 / fade_compensate=0.00 / psy_rd=1.00:0.00 / mixed_ref=1 / me_range=48 / chroma_me=1 / trellis=2 / 8x8dct=1 / cqm=0 / deadzone=11,6 / fast_pskip=0 / chroma_qp_offset=-2 / threads=24 / lookahead_threads=4 / sliced_threads=0 / nr=0 / decimate=0 / interlaced=0 / bluray_compat=0 / constrained_intra=0 / fgo=0 / bframes=8 / b_pyramid=2 / b_adapt=2 / b_bias=0 / direct=3 / weightb=1 / open_gop=0 / weightp=2 / keyint=250 / keyint_min=24 / scenecut=40 / intra_refresh=0 / rc_lookahead=60 / rc=crf / mbtree=0 / crf=17.5000 / qcomp=0.60 / qpmin=0:0:0 / qpmax=32:32:32 / qpstep=4 / vbv_maxrate=40000 / vbv_bufsize=30000 / crf_max=0.0 / nal_hrd=none / filler=0 / ip_ratio=1.30 / pb_ratio=1.20 / aq=4:0.80 / aq-sensitivity=10.00 / aq-factor=1.00:1.00:1.00 / aq2=0 / aq3=0
Language : Chinese
Default : Yes
Forced : No
Color range : Limited
Color primaries : BT.709
Transfer characteristics : BT.709
Matrix coefficients : BT.709

Audio
ID : 2
Format : DTS
Format/Info : Digital Theater Systems
Codec ID : A_DTS
Duration : 1 h 41 min
Bit rate mode : Constant
Bit rate : 768 kb/s
Channel(s) : 6 channels
Channel layout : C L R Ls Rs LFE
Sampling rate : 48.0 kHz
Frame rate : 93.750 FPS (512 SPF)
Bit depth : 24 bits
Compression mode : Lossy
Stream size : 558 MiB (7%)
Language : Chinese
Default : Yes
Forced : No

Text
ID : 3
Format : UTF-8
Codec ID : S_TEXT/UTF8
Codec ID/Info : UTF-8 Plain Text
Duration : 1 h 38 min
Bit rate : 52 b/s
Count of elements : 1557
Stream size : 37.6 KiB (0%)
Language : English
Default : Yes
Forced : No

Menu
00:00:00.000 : en:00:00:00.000
00:11:00.083 : en:00:11:00.083
00:21:13.125 : en:00:21:13.125
00:34:09.958 : en:00:34:09.958
00:47:32.208 : en:00:47:32.208
01:03:17.250 : en:01:03:17.250
01:18:08.667 : en:01:18:08.667
01:28:14.958 : en:01:28:14.958



磁力链接:
magnet:?xt=urn:btih:00a24194025cae7e68c22e5e6861c27f51848121&dn=David.Loman.2.2016.CHINESE.1080p.BluRay.x264.DTS-qqboy1017&tr=http%3A%2F%2Ftracker.trackerfix.com%3A80%2Fannounce&tr=udp%3A%2F%2F9.rarbg.me%3A2910&tr=udp%3A%2F%2F9.rarbg.to%3A2900

本帖子中包含更多资源

您需要 登录 才可以下载或查看,没有帐号?立即注册

x

2

主题

3万

帖子

4万

积分

升龙霸·VIP

Rank: 22Rank: 22Rank: 22Rank: 22

积分
43680

龙网爱心勋章龙网VIP·银牌

发表于 2020-3-7 20:28:11 | 显示全部楼层
谢谢楼主发片

1

主题

5188

帖子

7091

积分

升龙霸·VIP

Rank: 22Rank: 22Rank: 22Rank: 22

积分
7091

龙网VIP·银星龙网VIP·银徽龙网VIP·银牌

发表于 2020-3-8 10:48:20 | 显示全部楼层

感谢楼主的分享

1

主题

1796

帖子

2343

积分

赤血神龙

Rank: 20Rank: 20Rank: 20Rank: 20

积分
2343
发表于 2020-3-9 00:59:02 | 显示全部楼层
感谢楼主的分享

21

主题

1万

帖子

1万

积分

神界龙王

Rank: 30Rank: 30Rank: 30Rank: 30

积分
14159
发表于 2020-3-9 14:02:04 | 显示全部楼层
谢谢楼主分享精彩影片

1

主题

1162

帖子

1504

积分

神龙

Rank: 15Rank: 15Rank: 15

积分
1504
发表于 2020-3-19 09:56:31 | 显示全部楼层
感谢楼主 分享经典影片
您需要登录后才可以回帖 登录 | 立即注册

本版积分规则

小黑屋|梦幻天堂·龙网

GMT+8, 2020-4-2 14:46 , Processed in 0.137175 second(s), 21 queries , Gzip On.

Powered by Discuz! X3.2

© 2001-2013 Comsenz Inc.

快速回复 返回顶部 返回列表