梦幻天堂·龙网

 找回密码
 立即注册
查看: 460|回复: 6

[1080p] [喜剧]鸭王.The.Gigolo.2015.CHINESE.1080p.BluRay.x264-iKiW 7.61 GB 粤语英字

[复制链接]

6548

主题

8645

帖子

1万

积分

神界龙王

Rank: 30Rank: 30Rank: 30Rank: 30

积分
18541

龙网爱心勋章

发表于 2020-3-7 19:48:42 | 显示全部楼层 |阅读模式

导演: 区焯文
编剧: 区焯文
主演: 白健恩 / 何浩文 / 袁嘉敏 / 何佩瑜 / 樊玲 / 梁敏仪 / 唐紫睿 / 卢宛茵 / 江美仪 / 何华超 / 单立文 / 王俊棠 / 喇英
类型: 喜剧 / 爱情 / 情色
制片国家/地区: 中国香港
语言: 粤语
上映日期: 2015-01-29(中国香港)
片长: 96分钟
又名: The Gigolo
IMDb链接: tt4539508


鸭王的剧情简介 · · · · · ·
  懵懂少年何巨峰(何浩文 饰)被学校退学,之后,母亲又因病倒下,于是,整个家庭的重担便落到了他的肩上。何巨峰来到了红姐(江美仪 饰)所经营的夜店做清洁工,最终没能经受住金钱的诱惑,成为了一名夜店牛郎。
  何巨峰初来乍到,处处碰壁,更被头牌克里斯(白健恩 饰)羞辱戏弄,前途一 片茫然,就在此时,何巨峰偶然邂逅了早已经隐退江湖的一代鸭王埃博森(单立文 饰),后者化身成为其师傅,将毕生经验绝学传授给何巨峰。何巨峰重回夜店,技艺果然精湛了许多,他一路披荆斩棘,最终成为了夜店里的当红小生,甚至有女客人为了他,甘愿抛弃抛弃家庭。





Video
ID : 1
Format : AVC
Format/Info : Advanced Video Codec
Format profile : High@L4.1
Format settings : CABAC / 5 Ref Frames
Format settings, CABAC : Yes
Format settings, Reference frames : 5 frames
Codec ID : V_MPEG4/ISO/AVC
Duration : 1 h 36 min
Bit rate : 10.7 Mb/s
Width : 1 920 pixels
Height : 816 pixels
Display aspect ratio : 2.35:1
Frame rate mode : Constant
Frame rate : 24.000 FPS
Color space : YUV
Chroma subsampling : 4:2:0
Bit depth : 8 bits
Scan type : Progressive
Bits/(Pixel*Frame) : 0.283
Stream size : 7.18 GiB (94%)
Writing library : x264 core 129 r2245 bc13772
Encoding settings : cabac=1 / ref=5 / deblock=1:-3:-3 / analyse=0x3:0x133 / me=umh / subme=11 / psy=1 / psy_rd=1.05:0.05 / mixed_ref=1 / me_range=64 / chroma_me=1 / trellis=2 / 8x8dct=1 / cqm=0 / deadzone=21,11 / fast_pskip=0 / chroma_qp_offset=-3 / threads=12 / lookahead_threads=2 / sliced_threads=0 / nr=0 / decimate=1 / interlaced=0 / bluray_compat=0 / constrained_intra=0 / bframes=8 / b_pyramid=2 / b_adapt=2 / b_bias=0 / direct=3 / weightb=1 / open_gop=0 / weightp=2 / keyint=250 / keyint_min=24 / scenecut=40 / intra_refresh=0 / rc_lookahead=60 / rc=2pass / mbtree=0 / bitrate=10658 / ratetol=1.0 / qcomp=0.70 / qpmin=0 / qpmax=69 / qpstep=4 / cplxblur=20.0 / qblur=0.5 / vbv_maxrate=40000 / vbv_bufsize=30000 / nal_hrd=none / ip_ratio=1.40 / pb_ratio=1.30 / aq=1:0.80
Language : English
Default : Yes
Forced : No

Audio
ID : 2
Format : AC-3
Format/Info : Audio Coding 3
Commercial name : Dolby Digital
Codec ID : A_AC3
Duration : 1 h 36 min
Bit rate mode : Constant
Bit rate : 640 kb/s
Channel(s) : 6 channels
Channel layout : L R C LFE Ls Rs
Sampling rate : 48.0 kHz
Frame rate : 31.250 FPS (1536 SPF)
Bit depth : 16 bits
Compression mode : Lossy
Stream size : 444 MiB (6%)
Title : 粤语
Language : Chinese
Service kind : Complete Main
Default : Yes
Forced : No

Text
ID : 3
Format : UTF-8
Codec ID : S_TEXT/UTF8
Codec ID/Info : UTF-8 Plain Text
Duration : 1 h 32 min
Bit rate : 47 b/s
Count of elements : 1321
Stream size : 32.1 KiB (0%)
Language : English
Default : Yes
Forced : No



磁力链接:
magnet:?xt=urn:btih:a51cbff24271b72c739ad8912f487c0380547119&dn=The.Gigolo.2015.CHINESE.1080p.BluRay.x264-iKiW&tr=http%3A%2F%2Ftracker.trackerfix.com%3A80%2Fannounce&tr=udp%3A%2F%2F9.rarbg.me%3A2930&tr=udp%3A%2F%2F9.rarbg.to%3A2950

本帖子中包含更多资源

您需要 登录 才可以下载或查看,没有帐号?立即注册

x

2

主题

3万

帖子

4万

积分

升龙霸·VIP

Rank: 22Rank: 22Rank: 22Rank: 22

积分
43680

龙网爱心勋章龙网VIP·银牌

发表于 2020-3-7 20:27:50 | 显示全部楼层
谢谢楼主发片

1

主题

1796

帖子

2343

积分

赤血神龙

Rank: 20Rank: 20Rank: 20Rank: 20

积分
2343
发表于 2020-3-9 00:58:49 | 显示全部楼层
感谢楼主的分享

21

主题

1万

帖子

1万

积分

神界龙王

Rank: 30Rank: 30Rank: 30Rank: 30

积分
14159
发表于 2020-3-9 14:01:33 | 显示全部楼层
谢谢楼主分享精彩影片

0

主题

74

帖子

137

积分

龙之子

Rank: 8Rank: 8Rank: 8Rank: 8

积分
137
发表于 2020-3-9 19:58:32 | 显示全部楼层
谢谢楼主分享,楼主辛苦了!

0

主题

94

帖子

246

积分

龙少爷

Rank: 10Rank: 10

积分
246
发表于 2020-3-14 10:00:56 | 显示全部楼层

感谢楼主的辛苦分享。

1

主题

1162

帖子

1504

积分

神龙

Rank: 15Rank: 15Rank: 15

积分
1504
发表于 2020-3-19 09:56:10 | 显示全部楼层
感谢楼主 分享经典影片
您需要登录后才可以回帖 登录 | 立即注册

本版积分规则

小黑屋|梦幻天堂·龙网

GMT+8, 2020-4-2 15:33 , Processed in 0.141567 second(s), 21 queries , Gzip On.

Powered by Discuz! X3.2

© 2001-2013 Comsenz Inc.

快速回复 返回顶部 返回列表