梦幻天堂·龙网

 找回密码
 立即注册
查看: 297|回复: 4

[1080p] [喜剧]男歌女唱.2001.CHINESE.1080p.BluRay.x264.DTS-FGT 8.54 GB...

[复制链接]

6548

主题

8645

帖子

1万

积分

神界龙王

Rank: 30Rank: 30Rank: 30Rank: 30

积分
18540

龙网爱心勋章

发表于 2020-3-7 19:49:52 | 显示全部楼层 |阅读模式

导演: 邹凯光
编剧: 刘浩良 / 邹凯光
主演: 梅艳芳 / 黄子华 / 钱嘉乐 / 许绍雄 / 田蕊妮 / 黄一飞 / 杜汶泽
类型: 喜剧
制片国家/地区: 中国香港
语言: 粤语
上映日期: 2001-12-06(中国香港)
片长: 96分钟
又名: Let's Sing Along
IMDb链接: tt0296034


男歌女唱的剧情简介 · · · · · ·
  公司女白领朱维德(梅艳芳 饰)有个阳刚的名字,可是她的为人却胆小怕事,每日最大的人生目标就是节省那一角几毛。这样的人在公司肯定不受欢迎,不仅男同事,就连女同胞们都对她无甚好感,因此维德在公司的人缘可以说是糟糕透顶。与维德正好相反的是公司的办公室助理阿King(黄子华 饰),他自信心爆炸,对自己的演唱水平十分满意,自称“K歌之王”。一次,维德遭到同事们整蛊,莫名其妙的竟然在一个歌唱比赛中进入了决赛,事已至此维德已不能选择退出。但是胆小的维德天生便不敢再众人面前献唱,在人前唱歌她会异常紧张,以至喉咙肌肉抽搐不能发声。为了不要在决赛中出丑,维德找到了阿King,希望他能帮助自己解决问题。维德许诺了好处,阿King自然乐意帮忙,然而,维德胆小的程度却远远超出了他的想象,阿King最终能否帮助维德顺利过关?





Video
ID : 1
Format : AVC
Format/Info : Advanced Video Codec
Format profile : High@L4.1
Format settings : CABAC / 4 Ref Frames
Format settings, CABAC : Yes
Format settings, Reference frames : 4 frames
Codec ID : V_MPEG4/ISO/AVC
Duration : 1 h 34 min
Bit rate : 11.5 Mb/s
Width : 1 920 pixels
Height : 1 080 pixels
Display aspect ratio : 16:9
Frame rate mode : Constant
Frame rate : 24.000 FPS
Color space : YUV
Chroma subsampling : 4:2:0
Bit depth : 8 bits
Scan type : Progressive
Bits/(Pixel*Frame) : 0.231
Stream size : 7.55 GiB (88%)
Title : Lets.Sing.Along.2001.CHINESE.1080p.BluRay.x264.DTS-FGT
Writing library : x264 core 148 r2748 97eaef2
Encoding settings : cabac=1 / ref=4 / deblock=1:-2:-2 / analyse=0x3:0x113 / me=umh / subme=9 / psy=1 / psy_rd=1.00:0.15 / mixed_ref=1 / me_range=16 / chroma_me=1 / trellis=2 / 8x8dct=1 / cqm=0 / deadzone=21,11 / fast_pskip=1 / chroma_qp_offset=-3 / threads=72 / lookahead_threads=3 / sliced_threads=0 / nr=0 / decimate=1 / interlaced=0 / bluray_compat=0 / constrained_intra=0 / bframes=3 / b_pyramid=2 / b_adapt=1 / b_bias=0 / direct=3 / weightb=1 / open_gop=0 / weightp=2 / keyint=250 / keyint_min=25 / scenecut=40 / intra_refresh=0 / rc_lookahead=50 / rc=2pass / mbtree=1 / bitrate=11500 / ratetol=1.0 / qcomp=0.60 / qpmin=0 / qpmax=69 / qpstep=4 / cplxblur=20.0 / qblur=0.5 / vbv_maxrate=31250 / vbv_bufsize=31250 / nal_hrd=none / filler=0 / ip_ratio=1.40 / aq=1:1.00
Language : Chinese
Default : Yes
Forced : No

Audio
ID : 2
Format : DTS
Format/Info : Digital Theater Systems
Codec ID : A_DTS
Duration : 1 h 34 min
Bit rate mode : Constant
Bit rate : 1 509 kb/s
Channel(s) : 6 channels
Channel layout : C L R Ls Rs LFE
Sampling rate : 48.0 kHz
Frame rate : 93.750 FPS (512 SPF)
Bit depth : 16 bits
Compression mode : Lossy
Stream size : 1 015 MiB (12%)
Title : Lets.Sing.Along.2001.CHINESE.1080p.BluRay.x264.DTS-FGT
Language : Chinese
Default : Yes
Forced : No

Text
ID : 3
Format : UTF-8
Codec ID : S_TEXT/UTF8
Codec ID/Info : UTF-8 Plain Text
Duration : 1 h 28 min
Bit rate : 62 b/s
Count of elements : 1510
Stream size : 40.8 KiB (0%)
Language : English
Default : Yes
Forced : No

Menu
00:00:00.000 : en:Chapter 1
00:06:23.958 : en:Chapter 2
00:15:51.750 : en:Chapter 3
00:22:19.208 : en:Chapter 4
00:31:40.041 : en:Chapter 5
00:39:35.291 : en:Chapter 6
00:46:03.208 : en:Chapter 7
00:53:09.791 : en:Chapter 8
01:03:12.291 : en:Chapter 9
01:11:43.291 : en:Chapter 10
01:18:08.583 : en:Chapter 11
01:26:30.541 : en:Chapter 12



磁力链接:
magnet:?xt=urn:btih:29d704fb4641babec0b82329e0580517b58f08b9&dn=Lets.Sing.Along.2001.CHINESE.1080p.BluRay.x264.DTS-FGT&tr=http%3A%2F%2Ftracker.trackerfix.com%3A80%2Fannounce&tr=udp%3A%2F%2F9.rarbg.me%3A2990&tr=udp%3A%2F%2F9.rarbg.to%3A2720

本帖子中包含更多资源

您需要 登录 才可以下载或查看,没有帐号?立即注册

x

2

主题

3万

帖子

4万

积分

升龙霸·VIP

Rank: 22Rank: 22Rank: 22Rank: 22

积分
43680

龙网爱心勋章龙网VIP·银牌

发表于 2020-3-7 20:26:56 | 显示全部楼层
谢谢楼主发片

1

主题

1796

帖子

2343

积分

赤血神龙

Rank: 20Rank: 20Rank: 20Rank: 20

积分
2343
发表于 2020-3-9 00:58:33 | 显示全部楼层
感谢楼主的分享

21

主题

1万

帖子

1万

积分

神界龙王

Rank: 30Rank: 30Rank: 30Rank: 30

积分
14159
发表于 2020-3-9 14:01:18 | 显示全部楼层
谢谢楼主分享精彩影片

1

主题

1162

帖子

1504

积分

神龙

Rank: 15Rank: 15Rank: 15

积分
1504
发表于 2020-3-19 09:55:42 | 显示全部楼层
感谢楼主 分享经典影片
您需要登录后才可以回帖 登录 | 立即注册

本版积分规则

小黑屋|梦幻天堂·龙网

GMT+8, 2020-4-2 13:13 , Processed in 0.127173 second(s), 21 queries , Gzip On.

Powered by Discuz! X3.2

© 2001-2013 Comsenz Inc.

快速回复 返回顶部 返回列表