梦幻天堂·龙网

 找回密码
 立即注册
查看: 247|回复: 7

[1080p] [喜剧]吉星拱照.1990.CHINESE.1080p.BluRay.x264.DTS-FGT 8.21 GB

[复制链接]

6548

主题

8645

帖子

1万

积分

神界龙王

Rank: 30Rank: 30Rank: 30Rank: 30

积分
18541

龙网爱心勋章

发表于 2020-3-7 19:50:50 | 显示全部楼层 |阅读模式

导演: 杜琪峰
编剧: 海滴
主演: 周润发 / 张艾嘉 / 郑丹瑞 / 利智 / 黄坤玄 / 黄家驹 / 叶世荣 / 黄家强 / 黄贯中
类型: 喜剧
制片国家/地区: 中国香港
语言: 粤语
上映日期: 1990-01-08(中国香港)
片长: 90分钟
又名: 吉星高照(台) / The Fun, the Luck, and the Tycoon / The Fun, The Luck & The Tycoon
IMDb链接: tt0097619


吉星拱照的剧情简介 · · · · · ·
  林宝生(周润发 饰)是香港富豪,与表妹玉仙(利智 饰)早已订婚。但宝生并不喜欢未婚妻的庸俗,决定逃婚,并要证明自己能独立生活。出走的第一天,他阴差阳错来到了一个慈善晚会,认识了晚会赞助商东东快餐店的老板(夏雨 饰)与其妹妹(张艾嘉 饰),还成为了快餐店的员工之一。宝生与一群善良的同事度过了一段难忘的时光,他也看到了自己价值的存在,与老板的妹妹也产生了感情,但他与表妹的婚期将至,他的真实身份也将浮出水面,而他与老板妹妹的感情又会如何呢?





Video
ID : 1
Format : AVC
Format/Info : Advanced Video Codec
Format profile : High@L4.1
Format settings : CABAC / 4 Ref Frames
Format settings, CABAC : Yes
Format settings, Reference frames : 4 frames
Codec ID : V_MPEG4/ISO/AVC
Duration : 1 h 30 min
Bit rate : 11.5 Mb/s
Width : 1 920 pixels
Height : 1 080 pixels
Display aspect ratio : 16:9
Frame rate mode : Constant
Frame rate : 24.000 FPS
Color space : YUV
Chroma subsampling : 4:2:0
Bit depth : 8 bits
Scan type : Progressive
Bits/(Pixel*Frame) : 0.231
Stream size : 7.25 GiB (88%)
Title : The.Fun.The.Luck.1990.CHINESE.1080p.BluRay.x264.DTS-FGT
Writing library : x264 core 148 r2748 97eaef2
Encoding settings : cabac=1 / ref=4 / deblock=1:-2:-2 / analyse=0x3:0x113 / me=umh / subme=9 / psy=1 / psy_rd=1.00:0.15 / mixed_ref=1 / me_range=16 / chroma_me=1 / trellis=2 / 8x8dct=1 / cqm=0 / deadzone=21,11 / fast_pskip=1 / chroma_qp_offset=-3 / threads=72 / lookahead_threads=3 / sliced_threads=0 / nr=0 / decimate=1 / interlaced=0 / bluray_compat=0 / constrained_intra=0 / bframes=3 / b_pyramid=2 / b_adapt=1 / b_bias=0 / direct=3 / weightb=1 / open_gop=0 / weightp=2 / keyint=250 / keyint_min=25 / scenecut=40 / intra_refresh=0 / rc_lookahead=50 / rc=2pass / mbtree=1 / bitrate=11500 / ratetol=1.0 / qcomp=0.60 / qpmin=0 / qpmax=69 / qpstep=4 / cplxblur=20.0 / qblur=0.5 / vbv_maxrate=31250 / vbv_bufsize=31250 / nal_hrd=none / filler=0 / ip_ratio=1.40 / aq=1:1.00
Language : Chinese
Default : Yes
Forced : No

Audio
ID : 2
Format : DTS
Format/Info : Digital Theater Systems
Codec ID : A_DTS
Duration : 1 h 30 min
Bit rate mode : Constant
Bit rate : 1 509 kb/s
Channel(s) : 2 channels
Channel layout : L R
Sampling rate : 48.0 kHz
Frame rate : 93.750 FPS (512 SPF)
Bit depth : 16 bits
Compression mode : Lossy
Stream size : 975 MiB (12%)
Title : The.Fun.The.Luck.1990.CHINESE.1080p.BluRay.x264.DTS-FGT
Language : Chinese
Default : Yes
Forced : No

Text
ID : 3
Format : UTF-8
Codec ID : S_TEXT/UTF8
Codec ID/Info : UTF-8 Plain Text
Duration : 1 h 26 min
Bit rate : 63 b/s
Count of elements : 1500
Stream size : 40.3 KiB (0%)
Language : English
Default : Yes
Forced : No

Menu
00:00:00.000 : en:Chapter 01
00:06:35.375 : en:Chapter 02
00:12:20.708 : en:Chapter 03
00:23:20.875 : en:Chapter 04
00:34:10.167 : en:Chapter 05
00:42:56.708 : en:Chapter 06
00:48:04.042 : en:Chapter 07
00:59:01.125 : en:Chapter 08
01:06:10.458 : en:Chapter 09
01:11:36.208 : en:Chapter 10
01:18:15.417 : en:Chapter 11
01:23:01.125 : en:Chapter 12



磁力链接:
magnet:?xt=urn:btih:87b552981c364cad471e538b632a5a6877eba941&dn=The.Fun.The.Luck.And.The.Tycoon.1990.CHINESE.1080p.BluRay.x264.DTS-FGT&tr=http%3A%2F%2Ftracker.trackerfix.com%3A80%2Fannounce&tr=udp%3A%2F%2F9.rarbg.me%3A2730&tr=udp%3A%2F%2F9.rarbg.to%3A2760

本帖子中包含更多资源

您需要 登录 才可以下载或查看,没有帐号?立即注册

x

2

主题

3万

帖子

4万

积分

升龙霸·VIP

Rank: 22Rank: 22Rank: 22Rank: 22

积分
43680

龙网爱心勋章龙网VIP·银牌

发表于 2020-3-7 20:26:09 | 显示全部楼层
谢谢楼主发片

1

主题

416

帖子

1025

积分

神龙

Rank: 15Rank: 15Rank: 15

积分
1025
发表于 2020-3-8 00:17:22 | 显示全部楼层
谢谢楼主发片

1

主题

1796

帖子

2343

积分

赤血神龙

Rank: 20Rank: 20Rank: 20Rank: 20

积分
2343
发表于 2020-3-9 00:58:05 | 显示全部楼层
感谢楼主的分享

21

主题

1万

帖子

1万

积分

神界龙王

Rank: 30Rank: 30Rank: 30Rank: 30

积分
14159
发表于 2020-3-9 14:01:06 | 显示全部楼层
谢谢楼主分享精彩影片

1

主题

14

帖子

441

积分

龙少爷

Rank: 10Rank: 10

积分
441
发表于 2020-3-9 21:50:39 | 显示全部楼层
这是1080P的修复版吗,说实话还是不太清楚啊,很搞笑的一部港片,Beyond好帅

0

主题

263

帖子

385

积分

龙少爷

Rank: 10Rank: 10

积分
385
发表于 2020-3-15 14:45:28 | 显示全部楼层
当年好喜欢看的一部电影,多谢分享

1

主题

1162

帖子

1504

积分

神龙

Rank: 15Rank: 15Rank: 15

积分
1504
发表于 2020-3-19 09:55:28 | 显示全部楼层
感谢楼主 分享经典影片
您需要登录后才可以回帖 登录 | 立即注册

本版积分规则

小黑屋|梦幻天堂·龙网

GMT+8, 2020-4-2 13:51 , Processed in 0.121450 second(s), 21 queries , Gzip On.

Powered by Discuz! X3.2

© 2001-2013 Comsenz Inc.

快速回复 返回顶部 返回列表