梦幻天堂·龙网

 找回密码
 立即注册
查看: 671|回复: 9

[1080p] [动作]空山灵雨.1979.CHINESE.1080p.BluRay.REMUX.AVC.LPCM.1.0-FGT 30.76 GB 国语...

[复制链接]

6548

主题

8645

帖子

1万

积分

神界龙王

Rank: 30Rank: 30Rank: 30Rank: 30

积分
18541

龙网爱心勋章

发表于 2020-3-7 19:51:53 | 显示全部楼层 |阅读模式

导演: 胡金铨
编剧: 胡金铨
主演: 田丰 / 孙越 / 徐枫 / 秦沛 / 石隽 / 吴明才 / 吴家骧 / 佟林
类型: 剧情 / 动作 / 武侠 / 古装
制片国家/地区: 中国香港
语言: 汉语普通话
上映日期: 1979-07-11(中国香港)
片长: 120分钟
又名: Raining in the Mountain
IMDb链接: tt0192213


空山灵雨的剧情简介 · · · · · ·
  故事发生在名为“三宝寺”的古刹之中,住持即将圆寂的消息惹得江湖之中一片风雨,原因在于寺庙之中藏有的珍贵手写经书《大乘起信论》,谁若能接替住持的衣钵,便能获得这无价的珍宝。住持有三个徒弟,传衣钵是大事,于是,住持请来了王将军(田丰 饰)、施主文安(孙越 饰)和悟外法师 ( 吴家骧 饰),除了悟外法师之外的两人均觊觎经书的价值连城,文安甚至带来了女飞贼白狐(徐枫 饰)以备不时之需。
  住持有三个徒弟,大师兄(石隽 饰)和二师弟早已经被王将军和文安收买,只有三师弟慧思(秦沛 饰)是一心一意的为寺庙着想。就在这个节骨眼上,一位名叫邱明(佟林 饰)的男子来到寺里剃度为僧,邱明身为流犯却实为含冤受屈,而令他受冤且害他家破人亡的罪魁祸首不在别处,正在这寺庙之中。





Video
ID : 1
Format : AVC
Format/Info : Advanced Video Codec
Format profile : High@L4.1
Format settings : CABAC / 3 Ref Frames
Format settings, CABAC : Yes
Format settings, Reference frames : 3 frames
Codec ID : V_MPEG4/ISO/AVC
Duration : 2 h 1 min
Bit rate mode : Variable
Bit rate : 35.0 Mb/s
Maximum bit rate : 38.0 Mb/s
Width : 1 920 pixels
Height : 1 080 pixels
Display aspect ratio : 16:9
Frame rate mode : Constant
Frame rate : 23.976 (24000/1001) FPS
Color space : YUV
Chroma subsampling : 4:2:0
Bit depth : 8 bits
Scan type : Progressive
Bits/(Pixel*Frame) : 0.704
Stream size : 29.6 GiB (96%)
Title : Raining.in.the.Mountain.1979.CHINESE.1080p.BluRay.REMUX.AVC.LPCM.1.0-FGT
Writing library : x264 core 148 r2705 3f5ed56
Encoding settings : cabac=1 / ref=4 / deblock=0:-1:-1 / analyse=0x3:0x133 / me=umh / subme=10 / psy=1 / psy_rd=1.00:0.15 / mixed_ref=1 / me_range=24 / chroma_me=1 / trellis=2 / 8x8dct=1 / cqm=0 / deadzone=21,11 / fast_pskip=1 / chroma_qp_offset=-3 / threads=34 / lookahead_threads=2 / sliced_threads=0 / slices=4 / nr=0 / decimate=1 / interlaced=0 / bluray_compat=1 / constrained_intra=0 / bframes=3 / b_pyramid=1 / b_adapt=2 / b_bias=0 / direct=3 / weightb=1 / open_gop=1 / weightp=1 / keyint=24 / keyint_min=1 / scenecut=20 / intra_refresh=0 / rc_lookahead=24 / rc=abr / mbtree=0 / bitrate=35000 / ratetol=1.0 / qcomp=0.60 / qpmin=0 / qpmax=69 / qpstep=4 / vbv_maxrate=38000 / vbv_bufsize=30000 / nal_hrd=vbr / filler=0 / ip_ratio=1.40 / pb_ratio=1.30 / aq=1:0.10
Language : English
Default : No
Forced : No
Color range : Limited
Color primaries : BT.709
Transfer characteristics : BT.709
Matrix coefficients : BT.709

Audio #1
ID : 2
Format : PCM
Format settings : Little / Signed
Codec ID : A_PCM/INT/LIT
Duration : 2 h 1 min
Bit rate mode : Constant
Bit rate : 1 152 kb/s
Sampling rate : 48.0 kHz
Frame rate : 30.000 FPS (1600 SPF)
Bit depth : 24 bits
Stream size : 1 002 MiB (3%)
Title : Raining.in.the.Mountain.1979.CHINESE.1080p.BluRay.REMUX.AVC.LPCM.1.0-FGT
Language : Chinese
Default : Yes
Forced : No

Audio #2
ID : 3
Format : AC-3
Format/Info : Audio Coding 3
Commercial name : Dolby Digital
Codec ID : A_AC3
Duration : 2 h 1 min
Bit rate mode : Constant
Bit rate : 192 kb/s
Channel(s) : 2 channels
Channel layout : L R
Sampling rate : 48.0 kHz
Frame rate : 31.250 FPS (1536 SPF)
Bit depth : 16 bits
Compression mode : Lossy
Stream size : 167 MiB (1%)
Title : Raining.in.the.Mountain.1979.CHINESE.1080p.BluRay.REMUX.AVC.LPCM.1.0-FGT
Language : English
Service kind : Complete Main
Default : No
Forced : No

Text
ID : 4
Format : PGS
Muxing mode : zlib
Codec ID : S_HDMV/PGS
Codec ID/Info : Picture based subtitle format used on BDs/HD-DVDs
Duration : 2 h 0 min
Bit rate : 17.0 kb/s
Count of elements : 1868
Stream size : 14.6 MiB (0%)
Title : English-PGS
Language : English
Default : Yes
Forced : No

Menu
00:00:00.000 : en:Chapter 01
00:10:27.418 : en:Chapter 02
00:18:30.567 : en:Chapter 03
00:27:07.542 : en:Chapter 04
00:32:42.335 : en:Chapter 05
00:43:28.689 : en:Chapter 06
00:51:46.937 : en:Chapter 07
01:01:00.615 : en:Chapter 08
01:11:28.200 : en:Chapter 09
01:18:20.946 : en:Chapter 10
01:27:02.217 : en:Chapter 11
01:35:08.244 : en:Chapter 12
01:44:17.292 : en:Chapter 13
01:52:38.668 : en:Chapter 14



磁力链接:
magnet:?xt=urn:btih:fc6fdee77739914baeee8f0e4e69e203eb72ded4&dn=Raining.in.the.Mountain.1979.CHINESE.1080p.BluRay.REMUX.AVC.LPCM.1.0-FGT&tr=http%3A%2F%2Ftracker.trackerfix.com%3A80%2Fannounce&tr=udp%3A%2F%2F9.rarbg.me%3A2740&tr=udp%3A%2F%2F9.rarbg.to%3A2720

本帖子中包含更多资源

您需要 登录 才可以下载或查看,没有帐号?立即注册

x

2

主题

3万

帖子

4万

积分

升龙霸·VIP

Rank: 22Rank: 22Rank: 22Rank: 22

积分
43680

龙网爱心勋章龙网VIP·银牌

发表于 2020-3-7 20:25:31 | 显示全部楼层
谢谢楼主发片

1

主题

416

帖子

1025

积分

神龙

Rank: 15Rank: 15Rank: 15

积分
1025
发表于 2020-3-8 00:15:59 | 显示全部楼层
谢谢楼主发片

1

主题

5188

帖子

7091

积分

升龙霸·VIP

Rank: 22Rank: 22Rank: 22Rank: 22

积分
7091

龙网VIP·银星龙网VIP·银徽龙网VIP·银牌

发表于 2020-3-8 10:47:49 | 显示全部楼层

感谢楼主的分享

1

主题

1796

帖子

2343

积分

赤血神龙

Rank: 20Rank: 20Rank: 20Rank: 20

积分
2343
发表于 2020-3-9 00:57:43 | 显示全部楼层
感谢楼主的分享

21

主题

1万

帖子

1万

积分

神界龙王

Rank: 30Rank: 30Rank: 30Rank: 30

积分
14159
发表于 2020-3-9 14:00:55 | 显示全部楼层
谢谢楼主分享精彩影片

0

主题

202

帖子

614

积分

龙的传人

Rank: 13Rank: 13Rank: 13

积分
614
发表于 2020-3-10 20:41:53 | 显示全部楼层
楼主发贴辛苦了,谢谢楼主分享!

0

主题

202

帖子

614

积分

龙的传人

Rank: 13Rank: 13Rank: 13

积分
614
发表于 2020-3-10 22:12:00 | 显示全部楼层
楼主发贴辛苦了,谢谢楼主分享!

0

主题

202

帖子

614

积分

龙的传人

Rank: 13Rank: 13Rank: 13

积分
614
发表于 2020-3-10 22:13:44 | 显示全部楼层
楼主发贴辛苦了,谢谢楼主分享!

1

主题

1162

帖子

1504

积分

神龙

Rank: 15Rank: 15Rank: 15

积分
1504
发表于 2020-3-19 09:55:04 | 显示全部楼层
感谢楼主 分享经典影片
您需要登录后才可以回帖 登录 | 立即注册

本版积分规则

小黑屋|梦幻天堂·龙网

GMT+8, 2020-4-2 14:38 , Processed in 0.242290 second(s), 21 queries , Gzip On.

Powered by Discuz! X3.2

© 2001-2013 Comsenz Inc.

快速回复 返回顶部 返回列表