梦幻天堂·龙网

 找回密码
 立即注册
查看: 1318|回复: 12

[1080p] [奇幻]聊斋艳谭之灯草和尚.III.1992.CHINESE.1080p.BluRay.x264.DTS-FGT 粤语英字 ...

[复制链接]

6548

主题

8645

帖子

1万

积分

神界龙王

Rank: 30Rank: 30Rank: 30Rank: 30

积分
18541

龙网爱心勋章

发表于 2020-3-7 19:53:26 | 显示全部楼层 |阅读模式

导演: 黎继明
编剧: 甲元一
主演: 陈宝莲 / 成奎安 / 植敬雯 / 大友梨奈 / 黄德斌 / 何家驹 / 张京花 / 丹沢亚纪 / 李寿祺 / 曾醒光 / 李耀景 / 黄伟亮
类型: 剧情 / 情色 / 奇幻
制片国家/地区: 中国香港
语言: 粤语
上映日期: 1992-03-05(中国香港)
片长: 92分钟
又名: 聊斋艳谭3:灯草和尚 / Erotic Ghost Story III
IMDb链接: tt0104719


聊斋艳谭之灯草和尚的剧情简介 · · · · · ·
  侠士朱仲(黄德斌 饰)四方云游,被指腹为婚的未婚妻柳丝丝一路相随。二人经过一座古庙,遇到古庙内一个“灯草和尚”(成奎安 饰)——他能把自己的身体缩成灯草大小。朱仲与他相当投契,两人随即结为好友。
  是夜,朱仲发现古庙里一幅壁画,画中三个绝世美人翩翩起舞,如梦似幻,朱仲当即神魂颠倒,求灯草和尚助他入画,见壁画美人一面。灯草和尚禁不住朱仲的哀求,再三嘱咐后出手帮助。朱仲入画后,果真见到了画中美人绮梦(陈宝莲 饰)及其两个妹妹春梦、玉梦。朱仲与绮梦一夜销魂后,得知她的身世,还知道此事背后的阴谋。后来朱仲为绮梦所救,几经辛苦终于出画。他却决定回到画中,救出绮梦……





Video
ID : 1
Format : AVC
Format/Info : Advanced Video Codec
Format profile : High@L4.1
Format settings : CABAC / 4 Ref Frames
Format settings, CABAC : Yes
Format settings, Reference frames : 4 frames
Codec ID : V_MPEG4/ISO/AVC
Duration : 1 h 32 min
Bit rate : 11.5 Mb/s
Width : 1 920 pixels
Height : 1 080 pixels
Display aspect ratio : 16:9
Frame rate mode : Constant
Frame rate : 24.000 FPS
Color space : YUV
Chroma subsampling : 4:2:0
Bit depth : 8 bits
Scan type : Progressive
Bits/(Pixel*Frame) : 0.231
Stream size : 7.44 GiB (88%)
Title : Erotic.Ghost.Story.III.1992.CHINESE.1080p.BluRay.x264.DTS-FGT
Writing library : x264 core 148 r2795M aaa9aa8
Encoding settings : cabac=1 / ref=4 / deblock=1:-2:-2 / analyse=0x3:0x113 / me=umh / subme=9 / psy=1 / psy_rd=1.00:0.15 / mixed_ref=1 / me_range=16 / chroma_me=1 / trellis=2 / 8x8dct=1 / cqm=0 / deadzone=21,11 / fast_pskip=1 / chroma_qp_offset=-3 / threads=72 / lookahead_threads=3 / sliced_threads=0 / nr=0 / decimate=1 / interlaced=0 / bluray_compat=0 / constrained_intra=0 / bframes=3 / b_pyramid=2 / b_adapt=1 / b_bias=0 / direct=3 / weightb=1 / open_gop=0 / weightp=2 / keyint=250 / keyint_min=25 / scenecut=40 / intra_refresh=0 / rc_lookahead=50 / rc=2pass / mbtree=1 / bitrate=11500 / ratetol=1.0 / qcomp=0.60 / qpmin=0 / qpmax=69 / qpstep=4 / cplxblur=20.0 / qblur=0.5 / vbv_maxrate=31250 / vbv_bufsize=31250 / nal_hrd=none / filler=0 / ip_ratio=1.40 / aq=1:1.00
Language : Chinese
Default : Yes
Forced : No

Audio
ID : 2
Format : DTS
Format/Info : Digital Theater Systems
Codec ID : A_DTS
Duration : 1 h 32 min
Bit rate mode : Constant
Bit rate : 1 509 kb/s
Channel(s) : 2 channels
Channel layout : L R
Sampling rate : 48.0 kHz
Frame rate : 93.750 FPS (512 SPF)
Bit depth : 16 bits
Compression mode : Lossy
Stream size : 1 000 MiB (12%)
Title : Erotic.Ghost.Story.III.1992.CHINESE.1080p.BluRay.x264.DTS-FGT
Language : Chinese
Default : Yes
Forced : No

Text
ID : 3
Format : UTF-8
Codec ID : S_TEXT/UTF8
Codec ID/Info : UTF-8 Plain Text
Duration : 1 h 29 min
Bit rate : 27 b/s
Count of elements : 766
Stream size : 17.7 KiB (0%)
Language : English
Default : Yes
Forced : No

Menu
00:00:00.000 : en:Chapter 01
00:05:27.000 : en:Chapter 02
00:15:18.500 : en:Chapter 03
00:26:28.042 : en:Chapter 04
00:36:18.167 : en:Chapter 05
00:40:59.042 : en:Chapter 06
00:47:54.042 : en:Chapter 07
00:54:10.625 : en:Chapter 08
01:01:44.625 : en:Chapter 09
01:09:25.875 : en:Chapter 10
01:15:50.417 : en:Chapter 11
01:26:31.042 : en:Chapter 12


磁力链接:
magnet:?xt=urn:btih:f68a937141fdeef1916c1551d577521db266176e&dn=Erotic.Ghost.Story.III.1992.CHINESE.1080p.BluRay.x264.DTS-FGT&tr=http%3A%2F%2Ftracker.trackerfix.com%3A80%2Fannounce&tr=udp%3A%2F%2F9.rarbg.me%3A2740&tr=udp%3A%2F%2F9.rarbg.to%3A2720


本帖子中包含更多资源

您需要 登录 才可以下载或查看,没有帐号?立即注册

x

2

主题

3万

帖子

4万

积分

升龙霸·VIP

Rank: 22Rank: 22Rank: 22Rank: 22

积分
43680

龙网爱心勋章龙网VIP·银牌

发表于 2020-3-7 20:24:57 | 显示全部楼层
谢谢楼主发片

1

主题

416

帖子

1025

积分

神龙

Rank: 15Rank: 15Rank: 15

积分
1025
发表于 2020-3-8 00:16:15 | 显示全部楼层
谢谢楼主发片

0

主题

306

帖子

659

积分

龙的传人

二尺五

Rank: 13Rank: 13Rank: 13

积分
659
发表于 2020-3-8 14:10:54 | 显示全部楼层
下过好几个版本都不尽人意,看看这次的版本如何!——多谢分享了!
如果有来世,我愿作一棵大树伫立路旁,看着来来往往的人生!

1

主题

1796

帖子

2343

积分

赤血神龙

Rank: 20Rank: 20Rank: 20Rank: 20

积分
2343
发表于 2020-3-9 00:57:23 | 显示全部楼层
感谢楼主的分享

21

主题

1万

帖子

1万

积分

神界龙王

Rank: 30Rank: 30Rank: 30Rank: 30

积分
14159
发表于 2020-3-9 14:00:42 | 显示全部楼层
谢谢楼主分享精彩影片

0

主题

74

帖子

137

积分

龙之子

Rank: 8Rank: 8Rank: 8Rank: 8

积分
137
发表于 2020-3-9 19:38:12 | 显示全部楼层
谢谢楼主分享,楼主辛苦了!

3

主题

321

帖子

435

积分

龙少爷

Rank: 10Rank: 10

积分
435
发表于 2020-3-10 12:21:03 | 显示全部楼层
多谢分享,支持一下!

0

主题

202

帖子

614

积分

龙的传人

Rank: 13Rank: 13Rank: 13

积分
614
发表于 2020-3-10 20:42:33 | 显示全部楼层
楼主发贴辛苦了,谢谢楼主分享!

0

主题

73

帖子

84

积分

龙之子

Rank: 8Rank: 8Rank: 8Rank: 8

积分
84
发表于 2020-3-11 23:10:16 | 显示全部楼层

楼主发贴辛苦了,谢谢楼主分享!

3

主题

145

帖子

233

积分

龙少爷

Rank: 10Rank: 10

积分
233
发表于 2020-3-12 10:22:09 | 显示全部楼层
三就差了那么点意思。谢谢发片。

1

主题

1162

帖子

1504

积分

神龙

Rank: 15Rank: 15Rank: 15

积分
1504
发表于 2020-3-19 09:54:45 | 显示全部楼层
感谢楼主 分享经典影片

0

主题

74

帖子

147

积分

龙之子

Rank: 8Rank: 8Rank: 8Rank: 8

积分
147
发表于 2020-3-23 17:39:55 | 显示全部楼层
楼主发贴辛苦了,谢谢楼主分享!
您需要登录后才可以回帖 登录 | 立即注册

本版积分规则

小黑屋|梦幻天堂·龙网

GMT+8, 2020-4-2 15:24 , Processed in 0.307639 second(s), 21 queries , Gzip On.

Powered by Discuz! X3.2

© 2001-2013 Comsenz Inc.

快速回复 返回顶部 返回列表