梦幻天堂·龙网

 找回密码
 立即注册
查看: 1627|回复: 19

[1080p] 回复 [奇幻]聊斋艳谭续集五通神.II.1991.CHINESE.1080p.BluRay.x264.DTS-FGT 8.90...

[复制链接]

6534

主题

8631

帖子

1万

积分

神界龙王

Rank: 30Rank: 30Rank: 30Rank: 30

积分
18507

龙网爱心勋章

发表于 2020-3-7 19:54:38 | 显示全部楼层 |阅读模式

导演: 敖志君
编剧: 司徒安 / 敖志君 / 陈丽英 / 邝文伟 / 林大可 / 蔡淑贤
主演: 黄秋生 / 陈加玲 / 郭耀华 / 植敬雯 / 一条小百合 / 叶子楣 / 曾小燕
类型: 剧情 / 情色 / 奇幻
制片国家/地区: 中国香港
语言: 粤语
上映日期: 1991-01-23(中国香港)
片长: 94分钟
又名: 聊斋艳谭2:五通神 / Erotic Ghost Story II
IMDb链接: tt0102296


聊斋艳谭续集五通神的剧情简介 · · · · · ·
  五通神有着两个分神,分别为女魔(一条小百合 饰)和男魔(黄秋生 饰),他们共同吸收阴阳之气,以此来维持魔力。一次偶然中,男魔遇见了名为小燕(曾小燕 饰)的少女,被后者的善良和清纯所吸引,两人之间展开了一场人魔之恋,因此而触犯了天条。
  小燕的元神被封入了名叫玉印(陈加玲 饰)的女孩体内,长大后,玉印同名为刘山根(郭耀华 饰)的男子走到了一起。为了解救男魔,女魔千里迢迢来到人间,在见到了玉印之后,女魔知晓了事件的来龙去脉,她决心杀掉玉印,以解心头之患。玉印平静的生活被彻底搅乱,为了活命,也为了拯救心爱的男人,玉印只得与一干好友踏上了除魔之路。





Video
ID : 1
Format : AVC
Format/Info : Advanced Video Codec
Format profile : High@L4.1
Format settings : CABAC / 4 Ref Frames
Format settings, CABAC : Yes
Format settings, Reference frames : 4 frames
Codec ID : V_MPEG4/ISO/AVC
Duration : 1 h 37 min
Bit rate : 11.5 Mb/s
Width : 1 920 pixels
Height : 1 080 pixels
Display aspect ratio : 16:9
Frame rate mode : Constant
Frame rate : 24.000 FPS
Color space : YUV
Chroma subsampling : 4:2:0
Bit depth : 8 bits
Scan type : Progressive
Bits/(Pixel*Frame) : 0.231
Stream size : 7.86 GiB (88%)
Title : Erotic.Ghost.Story.II.1991.CHINESE.1080p.BluRay.x264.DTS-FGT
Writing library : x264 core 148 r2748 97eaef2
Encoding settings : cabac=1 / ref=4 / deblock=1:-2:-2 / analyse=0x3:0x113 / me=umh / subme=9 / psy=1 / psy_rd=1.00:0.15 / mixed_ref=1 / me_range=16 / chroma_me=1 / trellis=2 / 8x8dct=1 / cqm=0 / deadzone=21,11 / fast_pskip=1 / chroma_qp_offset=-3 / threads=72 / lookahead_threads=3 / sliced_threads=0 / nr=0 / decimate=1 / interlaced=0 / bluray_compat=0 / constrained_intra=0 / bframes=3 / b_pyramid=2 / b_adapt=1 / b_bias=0 / direct=3 / weightb=1 / open_gop=0 / weightp=2 / keyint=250 / keyint_min=25 / scenecut=40 / intra_refresh=0 / rc_lookahead=50 / rc=2pass / mbtree=1 / bitrate=11500 / ratetol=1.0 / qcomp=0.60 / qpmin=0 / qpmax=69 / qpstep=4 / cplxblur=20.0 / qblur=0.5 / vbv_maxrate=31250 / vbv_bufsize=31250 / nal_hrd=none / filler=0 / ip_ratio=1.40 / aq=1:1.00
Language : Chinese
Default : Yes
Forced : No

Audio
ID : 2
Format : DTS
Format/Info : Digital Theater Systems
Codec ID : A_DTS
Duration : 1 h 37 min
Bit rate mode : Constant
Bit rate : 1 509 kb/s
Channel(s) : 2 channels
Channel layout : L R
Sampling rate : 48.0 kHz
Frame rate : 93.750 FPS (512 SPF)
Bit depth : 16 bits
Compression mode : Lossy
Stream size : 1.03 GiB (12%)
Title : Erotic.Ghost.Story.II.1991.CHINESE.1080p.BluRay.x264.DTS-FGT
Language : Chinese
Default : Yes
Forced : No

Text
ID : 3
Format : UTF-8
Codec ID : S_TEXT/UTF8
Codec ID/Info : UTF-8 Plain Text
Duration : 1 h 35 min
Bit rate : 22 b/s
Count of elements : 634
Stream size : 15.7 KiB (0%)
Language : English
Default : Yes
Forced : No

Menu
00:00:00.000 : en:Chapter 01
00:08:08.166 : en:Chapter 02
00:16:08.916 : en:Chapter 03
00:25:56.625 : en:Chapter 04
00:33:14.583 : en:Chapter 05
00:40:13.625 : en:Chapter 06
00:45:39.416 : en:Chapter 07
00:56:01.833 : en:Chapter 08
01:05:07.541 : en:Chapter 09
01:12:57.000 : en:Chapter 10
01:21:30.125 : en:Chapter 11
01:29:59.666 : en:Chapter 12



磁力链接:
magnet:?xt=urn:btih:e44e4e07c0d624b36c80dbe15a1fb3c5ea2ce8fe&dn=Erotic.Ghost.Story.II.1991.CHINESE.1080p.BluRay.x264.DTS-FGT&tr=http%3A%2F%2Ftracker.trackerfix.com%3A80%2Fannounce&tr=udp%3A%2F%2F9.rarbg.me%3A2790&tr=udp%3A%2F%2F9.rarbg.to%3A2710

本帖子中包含更多资源

您需要 登录 才可以下载或查看,没有帐号?立即注册

x

2

主题

3万

帖子

4万

积分

升龙霸·VIP

Rank: 22Rank: 22Rank: 22Rank: 22

积分
43676

龙网爱心勋章龙网VIP·银牌

发表于 2020-3-7 20:24:00 | 显示全部楼层
谢谢楼主发片

1

主题

416

帖子

1024

积分

神龙

Rank: 15Rank: 15Rank: 15

积分
1024
发表于 2020-3-8 00:16:34 | 显示全部楼层
谢谢楼主发片

0

主题

26

帖子

58

积分

泡泡龙

Rank: 5Rank: 5Rank: 5

积分
58
发表于 2020-3-8 10:12:16 | 显示全部楼层
真给力啊哈

0

主题

155

帖子

169

积分

龙之子

寡人一个

Rank: 8Rank: 8Rank: 8Rank: 8

积分
169
QQ
发表于 2020-3-8 12:25:50 | 显示全部楼层
老片子  再看一遍
男人就是色 !咋的不服气!

0

主题

155

帖子

169

积分

龙之子

寡人一个

Rank: 8Rank: 8Rank: 8Rank: 8

积分
169
QQ
发表于 2020-3-8 12:26:26 | 显示全部楼层
为什么 下载不了啊?
男人就是色 !咋的不服气!

1

主题

1796

帖子

2342

积分

赤血神龙

Rank: 20Rank: 20Rank: 20Rank: 20

积分
2342
发表于 2020-3-9 00:57:06 | 显示全部楼层
感谢楼主的分享

21

主题

1万

帖子

1万

积分

神界龙王

Rank: 30Rank: 30Rank: 30Rank: 30

积分
13901
发表于 2020-3-9 14:00:19 | 显示全部楼层
谢谢楼主分享精彩老片

0

主题

2187

帖子

965

积分

龙的传人

Rank: 13Rank: 13Rank: 13

积分
965
发表于 2020-3-9 14:15:44 | 显示全部楼层
DDDDDDDDDDDDDDDDDD

0

主题

74

帖子

134

积分

龙之子

Rank: 8Rank: 8Rank: 8Rank: 8

积分
134
发表于 2020-3-9 19:33:44 | 显示全部楼层
谢谢楼主分享,楼主辛苦了!

1

主题

14

帖子

440

积分

龙少爷

Rank: 10Rank: 10

积分
440
发表于 2020-3-9 21:49:46 | 显示全部楼层
90年代初的时候是香港三级片最火的时候了,很多经典之作都来自那时

3

主题

321

帖子

435

积分

龙少爷

Rank: 10Rank: 10

积分
435
发表于 2020-3-10 12:20:05 | 显示全部楼层
多谢分享,支持一下!

0

主题

202

帖子

612

积分

龙的传人

Rank: 13Rank: 13Rank: 13

积分
612
发表于 2020-3-10 20:44:03 | 显示全部楼层
楼主发贴辛苦了,谢谢楼主分享!

0

主题

202

帖子

612

积分

龙的传人

Rank: 13Rank: 13Rank: 13

积分
612
发表于 2020-3-10 22:14:55 | 显示全部楼层
楼主发贴辛苦了,谢谢楼主分享!

0

主题

202

帖子

612

积分

龙的传人

Rank: 13Rank: 13Rank: 13

积分
612
发表于 2020-3-10 22:15:24 | 显示全部楼层
楼主发贴辛苦了,谢谢楼主分享!
您需要登录后才可以回帖 登录 | 立即注册

本版积分规则

小黑屋|梦幻天堂·龙网

GMT+8, 2020-3-31 02:24 , Processed in 0.134997 second(s), 22 queries , Gzip On.

Powered by Discuz! X3.2

© 2001-2013 Comsenz Inc.

快速回复 返回顶部 返回列表