梦幻天堂·龙网

 找回密码
 立即注册
查看: 170|回复: 6

[1080p] 审死官.1992.CHINESE.1080p.BluRay.x264.DTS-FGT 9.04 GB 粤语英字

[复制链接]

6548

主题

8645

帖子

1万

积分

神界龙王

Rank: 30Rank: 30Rank: 30Rank: 30

积分
18541

龙网爱心勋章

发表于 2020-3-16 10:41:53 | 显示全部楼层 |阅读模式
导演: 杜琪峰
编剧: 邵丽琼
主演: 周星驰 / 梅艳芳 / 吴家丽 / 吴孟达 / 秦沛 / 梁家仁 / 苑琼丹 / 黄一飞 / 朱咪咪
类型: 喜剧 / 古装
制片国家/地区: 中国香港
语言: 粤语
上映日期: 1992-07-02(中国香港)
片长: 102 分钟
又名: 威龙闯天关(台) / Justice, My Foot!
IMDb链接: tt0105385

审死官的剧情简介 · · · · · ·
  宋世杰(周星驰 饰)是一个清朝时期的著名大状,他出色的口才及能力让他敢于批评衙门的大官,也为很多人伸冤。就算他不满当时官场的腐败黑暗,但他还是收了不少贿赂,部分还是昧心钱,都报应在了自己的儿子上,十多个儿子都养不大。妻子(梅艳芳 饰)为了腹中的孩子,断然要求他就此封笔,不可再做大状。虽然宋世杰极其不愿意,还是答应了妻子的要求。妻子遇到了满肚冤情的寡妇(吴嘉丽 饰),处于对女人的同情,她要求丈夫宋世杰为这名寡妇打官司,因此宋世杰又被迫重出江湖。在为寡妇伸冤的过程中,他再次看到了官场的黑暗,还差点抄家、送命……

审死官 審死官 获奖情况
第29届台北金马影展  (1992)
金马奖 最佳剧情片(提名)
金马奖 最佳男主角(提名) 周星驰
金马奖 最佳改编剧本(提名) 邵丽琼
金马奖 最佳原创配乐(提名) 胡伟立
金马奖 最佳剪辑(提名) 朱晨杰
第12届香港电影金像奖  (1993)
最佳编剧(提名) 邵丽琼
最佳男主角(提名) 周星驰
最佳女主角(提名) 梅艳芳
最佳服装造型设计(提名) 余家安


Video
ID : 1
Format : AVC
Format/Info : Advanced Video Codec
Format profile : High@L4.1
Format settings : CABAC / 4 Ref Frames
Format settings, CABAC : Yes
Format settings, Reference frames : 4 frames
Codec ID : V_MPEG4/ISO/AVC
Duration : 1 h 39 min
Bit rate : 11.5 Mb/s
Width : 1 920 pixels
Height : 1 032 pixels
Display aspect ratio : 1.85:1
Frame rate mode : Constant
Frame rate : 24.000 FPS
Color space : YUV
Chroma subsampling : 4:2:0
Bit depth : 8 bits
Scan type : Progressive
Bits/(Pixel*Frame) : 0.242
Stream size : 7.99 GiB (88%)
Title : Justice.My.Foot.1992.CHINESE.1080p.BluRay.x264.DTS-FGT
Writing library : x264 core 148 r2748 97eaef2
Encoding settings : cabac=1 / ref=4 / deblock=1:-2:-2 / analyse=0x3:0x113 / me=umh / subme=9 / psy=1 / psy_rd=1.00:0.15 / mixed_ref=1 / me_range=16 / chroma_me=1 / trellis=2 / 8x8dct=1 / cqm=0 / deadzone=21,11 / fast_pskip=1 / chroma_qp_offset=-3 / threads=72 / lookahead_threads=3 / sliced_threads=0 / nr=0 / decimate=1 / interlaced=0 / bluray_compat=0 / constrained_intra=0 / bframes=3 / b_pyramid=2 / b_adapt=1 / b_bias=0 / direct=3 / weightb=1 / open_gop=0 / weightp=2 / keyint=250 / keyint_min=25 / scenecut=40 / intra_refresh=0 / rc_lookahead=50 / rc=2pass / mbtree=1 / bitrate=11500 / ratetol=1.0 / qcomp=0.60 / qpmin=0 / qpmax=69 / qpstep=4 / cplxblur=20.0 / qblur=0.5 / vbv_maxrate=31250 / vbv_bufsize=31250 / nal_hrd=none / filler=0 / ip_ratio=1.40 / aq=1:1.00
Language : Chinese
Default : Yes
Forced : No

Audio
ID : 2
Format : DTS
Format/Info : Digital Theater Systems
Codec ID : A_DTS
Duration : 1 h 39 min
Bit rate mode : Constant
Bit rate : 1 509 kb/s
Channel(s) : 2 channels
Channel layout : L R
Sampling rate : 48.0 kHz
Frame rate : 93.750 FPS (512 SPF)
Bit depth : 16 bits
Compression mode : Lossy
Stream size : 1.05 GiB (12%)
Title : Justice.My.Foot.1992.CHINESE.1080p.BluRay.x264.DTS-FGT
Language : Chinese
Default : Yes
Forced : No

Text
ID : 3
Format : UTF-8
Codec ID : S_TEXT/UTF8
Codec ID/Info : UTF-8 Plain Text
Duration : 1 h 36 min
Bit rate : 77 b/s
Count of elements : 2122
Stream size : 54.5 KiB (0%)
Language : English
Default : Yes
Forced : No

Menu
00:00:00.000 : en:Chapter 01
00:09:36.125 : en:Chapter 02
00:17:01.083 : en:Chapter 03
00:24:27.625 : en:Chapter 04
00:36:49.000 : en:Chapter 05
00:46:42.000 : en:Chapter 06
00:53:49.083 : en:Chapter 07
01:00:44.000 : en:Chapter 08
01:11:30.416 : en:Chapter 09
01:17:10.083 : en:Chapter 10
01:21:31.791 : en:Chapter 11
01:37:28.833 : en:Chapter 12


磁力链接:
magnet:?xt=urn:btih:09484eb9cde944f393f4509349a7de4f53380cf0&dn=Justice.My.Foot.1992.CHINESE.1080p.BluRay.x264.DTS-FGT&tr=http%3A%2F%2Ftracker.trackerfix.com%3A80%2Fannounce&tr=udp%3A%2F%2F9.rarbg.me%3A2770&tr=udp%3A%2F%2F9.rarbg.to%3A2730

本帖子中包含更多资源

您需要 登录 才可以下载或查看,没有帐号?立即注册

x

2

主题

3万

帖子

4万

积分

升龙霸·VIP

Rank: 22Rank: 22Rank: 22Rank: 22

积分
43680

龙网爱心勋章龙网VIP·银牌

发表于 2020-3-16 23:16:30 | 显示全部楼层
谢谢楼主发片

0

主题

332

帖子

516

积分

龙的传人

Rank: 13Rank: 13Rank: 13

积分
516
发表于 2020-3-18 14:08:51 | 显示全部楼层
谢谢楼主发片

1

主题

1162

帖子

1504

积分

神龙

Rank: 15Rank: 15Rank: 15

积分
1504
发表于 2020-3-19 09:53:31 | 显示全部楼层
感谢楼主 分享经典影片

21

主题

1万

帖子

1万

积分

神界龙王

Rank: 30Rank: 30Rank: 30Rank: 30

积分
14159
发表于 2020-3-19 11:56:19 | 显示全部楼层
谢谢楼主分享精彩影片,辛苦了

0

主题

54

帖子

124

积分

龙之子

Rank: 8Rank: 8Rank: 8Rank: 8

积分
124
发表于 7 天前 | 显示全部楼层
谢谢分享。

1

主题

67

帖子

107

积分

龙之子

Rank: 8Rank: 8Rank: 8Rank: 8

积分
107
发表于 3 天前 | 显示全部楼层
谢谢分享!!!!!!!!!!
您需要登录后才可以回帖 登录 | 立即注册

本版积分规则

小黑屋|梦幻天堂·龙网

GMT+8, 2020-4-2 13:39 , Processed in 0.123104 second(s), 21 queries , Gzip On.

Powered by Discuz! X3.2

© 2001-2013 Comsenz Inc.

快速回复 返回顶部 返回列表