梦幻天堂·龙网

 找回密码
 立即注册
查看: 198|回复: 5

[1080p] 济公.1993.CHINESE.1080p.BluRay.x264.DTS-FGT 8.07 GB 粤语英字

[复制链接]

6548

主题

8645

帖子

1万

积分

神界龙王

Rank: 30Rank: 30Rank: 30Rank: 30

积分
18541

龙网爱心勋章

发表于 2020-3-16 10:43:16 | 显示全部楼层 |阅读模式
导演: 程小东 / 杜琪峰
编剧: 邵丽琼
主演: 周星驰 / 张曼玉 / 吴孟达 / 黄秋生 / 梅艳芳 / 苑琼丹 / 卢海鹏 / 黄一飞
类型: 喜剧
制片国家/地区: 中国香港
语言: 粤语
上映日期: 1993-07-29(中国香港)
片长: 89分钟
又名: 降龙罗汉与济颠 / The Mad Monk
IMDb链接: tt0106538

济公的剧情简介 · · · · · ·
  天上降龙罗汉(周星驰)与众仙打赌,称在凡间会令三名凡人于一定时限内为他人作出牺牲,否则他愿再受轮回之苦。伏虎罗汉化身和尚济公来到人间,边游戏人间边普渡为生的间隙,他选中被老天所罚的九世乞丐(黄秋生)、遭男人欺女人辱的妓女(张曼玉)、杀人如麻的大盗(黄志强)为实验品。
  凭 借鬼马机智巧妙安排一番后,济公与三人建立了良好的关系,而最终,九世乞丐与大盗被济公感化作出为他人牺牲之举,妓女更是一往情深爱上他,令他开始为是否自动放弃神仙身份留在凡间而烦恼。

Video
ID : 1
Format : AVC
Format/Info : Advanced Video Codec
Format profile : High@L4.1
Format settings : CABAC / 4 Ref Frames
Format settings, CABAC : Yes
Format settings, Reference frames : 4 frames
Codec ID : V_MPEG4/ISO/AVC
Duration : 1 h 28 min
Bit rate : 11.5 Mb/s
Width : 1 920 pixels
Height : 1 036 pixels
Display aspect ratio : 1.85:1
Frame rate mode : Constant
Frame rate : 24.000 FPS
Color space : YUV
Chroma subsampling : 4:2:0
Bit depth : 8 bits
Scan type : Progressive
Bits/(Pixel*Frame) : 0.241
Stream size : 7.13 GiB (88%)
Title : The.Mad.Monk.1993.CHINESE.1080p.BluRay.x264.DTS-FGT
Writing library : x264 core 148 r2748 97eaef2
Encoding settings : cabac=1 / ref=4 / deblock=1:-2:-2 / analyse=0x3:0x113 / me=umh / subme=9 / psy=1 / psy_rd=1.00:0.15 / mixed_ref=1 / me_range=16 / chroma_me=1 / trellis=2 / 8x8dct=1 / cqm=0 / deadzone=21,11 / fast_pskip=1 / chroma_qp_offset=-3 / threads=72 / lookahead_threads=3 / sliced_threads=0 / nr=0 / decimate=1 / interlaced=0 / bluray_compat=0 / constrained_intra=0 / bframes=3 / b_pyramid=2 / b_adapt=1 / b_bias=0 / direct=3 / weightb=1 / open_gop=0 / weightp=2 / keyint=250 / keyint_min=25 / scenecut=40 / intra_refresh=0 / rc_lookahead=50 / rc=2pass / mbtree=1 / bitrate=11500 / ratetol=1.0 / qcomp=0.60 / qpmin=0 / qpmax=69 / qpstep=4 / cplxblur=20.0 / qblur=0.5 / vbv_maxrate=31250 / vbv_bufsize=31250 / nal_hrd=none / filler=0 / ip_ratio=1.40 / aq=1:1.00
Language : Chinese
Default : Yes
Forced : No

Audio
ID : 2
Format : DTS
Format/Info : Digital Theater Systems
Codec ID : A_DTS
Duration : 1 h 28 min
Bit rate mode : Constant
Bit rate : 1 509 kb/s
Channel(s) : 2 channels
Channel layout : L R
Sampling rate : 48.0 kHz
Frame rate : 93.750 FPS (512 SPF)
Bit depth : 16 bits
Compression mode : Lossy
Stream size : 959 MiB (12%)
Title : The.Mad.Monk.1993.CHINESE.1080p.BluRay.x264.DTS-FGT
Language : Chinese
Default : Yes
Forced : No

Text
ID : 3
Format : UTF-8
Codec ID : S_TEXT/UTF8
Codec ID/Info : UTF-8 Plain Text
Duration : 1 h 24 min
Bit rate : 70 b/s
Count of elements : 1611
Stream size : 44.0 KiB (0%)
Language : English
Default : Yes
Forced : No

Menu
00:00:00.000 : en:Chapter 1
00:07:27.292 : en:Chapter 2
00:14:58.750 : en:Chapter 3
00:22:17.000 : en:Chapter 4
00:28:40.375 : en:Chapter 5
00:35:48.958 : en:Chapter 6
00:43:17.833 : en:Chapter 7
00:50:15.792 : en:Chapter 8
00:57:12.875 : en:Chapter 9
01:06:59.250 : en:Chapter 10
01:13:37.375 : en:Chapter 11
01:21:24.792 : en:Chapter 12

磁力链接:
magnet:?xt=urn:btih:5f9c3fa165ca0ae4f072eec50caa2bbe966a5896&dn=The.Mad.Monk.1993.CHINESE.1080p.BluRay.x264.DTS-FGT&tr=http%3A%2F%2Ftracker.trackerfix.com%3A80%2Fannounce&tr=udp%3A%2F%2F9.rarbg.me%3A2810&tr=udp%3A%2F%2F9.rarbg.to%3A2880

本帖子中包含更多资源

您需要 登录 才可以下载或查看,没有帐号?立即注册

x

2

主题

3万

帖子

4万

积分

升龙霸·VIP

Rank: 22Rank: 22Rank: 22Rank: 22

积分
43680

龙网爱心勋章龙网VIP·银牌

发表于 2020-3-16 23:16:16 | 显示全部楼层
谢谢楼主发片

1

主题

1162

帖子

1504

积分

神龙

Rank: 15Rank: 15Rank: 15

积分
1504
发表于 2020-3-19 09:53:15 | 显示全部楼层
感谢楼主 分享经典影片

21

主题

1万

帖子

1万

积分

神界龙王

Rank: 30Rank: 30Rank: 30Rank: 30

积分
14159
发表于 2020-3-19 11:56:09 | 显示全部楼层
谢谢楼主分享精彩影片,辛苦了

0

主题

54

帖子

124

积分

龙之子

Rank: 8Rank: 8Rank: 8Rank: 8

积分
124
发表于 7 天前 | 显示全部楼层
感谢分享经典影片

1

主题

67

帖子

107

积分

龙之子

Rank: 8Rank: 8Rank: 8Rank: 8

积分
107
发表于 3 天前 | 显示全部楼层
谢谢分享!!!!!!!!!!
您需要登录后才可以回帖 登录 | 立即注册

本版积分规则

小黑屋|梦幻天堂·龙网

GMT+8, 2020-4-2 14:18 , Processed in 0.129145 second(s), 21 queries , Gzip On.

Powered by Discuz! X3.2

© 2001-2013 Comsenz Inc.

快速回复 返回顶部 返回列表