梦幻天堂·龙网

 找回密码
 立即注册
查看: 243|回复: 5

[1080p] 猛鬼差馆.1987.CHINESE.1080p.BluRay.x264.DTS-FGT 8.65 GB 粤语英字

[复制链接]

6534

主题

8631

帖子

1万

积分

神界龙王

Rank: 30Rank: 30Rank: 30Rank: 30

积分
18507

龙网爱心勋章

发表于 2020-3-16 10:44:36 | 显示全部楼层 |阅读模式
导演: 刘镇伟
编剧: 王家卫 / 刘镇伟
主演: 张学友 / 许冠英 / 陈家齐 / 胡枫 / 邓光荣 / 楼南光 / 左颂升
类型: 喜剧 / 恐怖
制片国家/地区: 中国香港
语言: 粤语
上映日期: 1987-11-19
片长: 87分钟
又名: 魁星踢斗(台) / The Haunted Cop Shop
IMDb链接: tt0093522

猛鬼差馆的剧情简介 · · · · · ·
  香港有一间警局,三十年前曾是日军侵略香港时的军营。因为战败,日本军官在里面切腹自杀了。据说他们的阴魂不散,魂魄依然逗留在这所警局当中,并会在孟兰节当天出没。金麦基(张学友 饰)与孟超(许冠英 饰)都在这所警局里面当警察,但他们一直不相信警局里面的恐怖传说。直到在孟兰节当天他们亲眼目睹了逃犯蛇仔明(楼南光 饰)遇到太阳化作了灰土,原来蛇仔明在监狱内看到了日军的鬼魂,被咬后变成了僵尸,他们才相信警局内的确有阴魂。
  他们把情况报告上司正想查明真相,又遇到了一女子疑似被僵尸咬后死去了。一场警察与厉鬼间的较量也正式开始了……

Video
ID : 1
Format : AVC
Format/Info : Advanced Video Codec
Format profile : High@L4.1
Format settings : CABAC / 4 Ref Frames
Format settings, CABAC : Yes
Format settings, Reference frames : 4 frames
Codec ID : V_MPEG4/ISO/AVC
Duration : 1 h 35 min
Bit rate : 11.5 Mb/s
Width : 1 916 pixels
Height : 1 032 pixels
Display aspect ratio : 1.85:1
Frame rate mode : Constant
Frame rate : 24.000 FPS
Color space : YUV
Chroma subsampling : 4:2:0
Bit depth : 8 bits
Scan type : Progressive
Bits/(Pixel*Frame) : 0.242
Stream size : 7.64 GiB (88%)
Title : The.Haunted.Cop.Shop.1987.CHINESE.1080p.BluRay.x264.DTS-FGT
Writing library : x264 core 148 r2748 97eaef2
Encoding settings : cabac=1 / ref=4 / deblock=1:-2:-2 / analyse=0x3:0x113 / me=umh / subme=9 / psy=1 / psy_rd=1.00:0.15 / mixed_ref=1 / me_range=16 / chroma_me=1 / trellis=2 / 8x8dct=1 / cqm=0 / deadzone=21,11 / fast_pskip=1 / chroma_qp_offset=-3 / threads=24 / lookahead_threads=3 / sliced_threads=0 / nr=0 / decimate=1 / interlaced=0 / bluray_compat=0 / constrained_intra=0 / bframes=3 / b_pyramid=2 / b_adapt=1 / b_bias=0 / direct=3 / weightb=1 / open_gop=0 / weightp=2 / keyint=250 / keyint_min=25 / scenecut=40 / intra_refresh=0 / rc_lookahead=50 / rc=2pass / mbtree=1 / bitrate=11500 / ratetol=1.0 / qcomp=0.60 / qpmin=0 / qpmax=69 / qpstep=4 / cplxblur=20.0 / qblur=0.5 / vbv_maxrate=31250 / vbv_bufsize=31250 / nal_hrd=none / filler=0 / ip_ratio=1.40 / aq=1:1.00
Language : Chinese
Default : Yes
Forced : No

Audio
ID : 2
Format : DTS
Format/Info : Digital Theater Systems
Codec ID : A_DTS
Duration : 1 h 35 min
Bit rate mode : Constant
Bit rate : 1 509 kb/s
Channel(s) : 6 channels
Channel layout : C L R Ls Rs LFE
Sampling rate : 48.0 kHz
Frame rate : 93.750 FPS (512 SPF)
Bit depth : 16 bits
Compression mode : Lossy
Stream size : 1.00 GiB (12%)
Title : The.Haunted.Cop.Shop.1987.CHINESE.1080p.BluRay.x264.DTS-FGT
Language : Chinese
Default : Yes
Forced : No

Text
ID : 3
Format : UTF-8
Codec ID : S_TEXT/UTF8
Codec ID/Info : UTF-8 Plain Text
Duration : 1 h 32 min
Bit rate : 52 b/s
Count of elements : 1323
Stream size : 35.7 KiB (0%)
Language : English
Default : Yes
Forced : No

Menu
00:00:00.000 : en:第 01 ç«
00:09:03.708 : en:第 02 ç«
00:19:38.958 : en:第 03 ç«
00:27:36.833 : en:第 04 ç«
00:34:59.375 : en:第 05 ç«
00:41:13.625 : en:第 06 ç«
00:52:48.541 : en:第 07 ç«
01:03:16.875 : en:第 08 ç«
01:07:20.125 : en:第 09 ç«
01:14:28.000 : en:第 10 ç«
01:22:54.083 : en:第 11 ç«
01:29:44.541 : en:第 12 ç«

磁力链接:
magnet:?xt=urn:btih:926719c7ce64a4fd3c86fbfb9978b5c5f17b3997&dn=The.Haunted.Cop.Shop.1987.CHINESE.1080p.BluRay.x264.DTS-FGT&tr=http%3A%2F%2Ftracker.trackerfix.com%3A80%2Fannounce&tr=udp%3A%2F%2F9.rarbg.me%3A2990&tr=udp%3A%2F%2F9.rarbg.to%3A2900

本帖子中包含更多资源

您需要 登录 才可以下载或查看,没有帐号?立即注册

x

2

主题

3万

帖子

4万

积分

升龙霸·VIP

Rank: 22Rank: 22Rank: 22Rank: 22

积分
43676

龙网爱心勋章龙网VIP·银牌

发表于 2020-3-16 23:12:46 | 显示全部楼层
谢谢楼主发片

0

主题

202

帖子

612

积分

龙的传人

Rank: 13Rank: 13Rank: 13

积分
612
发表于 2020-3-18 20:51:20 | 显示全部楼层
楼主发贴辛苦了,谢谢楼主分享!

1

主题

1084

帖子

1403

积分

神龙

Rank: 15Rank: 15Rank: 15

积分
1403
发表于 2020-3-19 09:53:02 | 显示全部楼层
感谢楼主 分享经典影片

21

主题

1万

帖子

1万

积分

神界龙王

Rank: 30Rank: 30Rank: 30Rank: 30

积分
13901
发表于 2020-3-19 11:55:53 | 显示全部楼层
谢谢楼主分享精彩影片,辛苦了

2

主题

236

帖子

325

积分

龙少爷

Rank: 10Rank: 10

积分
325
发表于 昨天 17:46 | 显示全部楼层
感谢上传,试试,看看能不能下载下来,在来评论,谢谢!!
您需要登录后才可以回帖 登录 | 立即注册

本版积分规则

小黑屋|梦幻天堂·龙网

GMT+8, 2020-3-31 03:41 , Processed in 0.120793 second(s), 21 queries , Gzip On.

Powered by Discuz! X3.2

© 2001-2013 Comsenz Inc.

快速回复 返回顶部 返回列表