梦幻天堂·龙网

 找回密码
 立即注册
查看: 173|回复: 3

[1080p] 不义之战.2019.CHINESE.1080p.BluRay.x264-WiKi 8.24 GB 国语简繁中字

[复制链接]

6548

主题

8645

帖子

1万

积分

神界龙王

Rank: 30Rank: 30Rank: 30Rank: 30

积分
18541

龙网爱心勋章

发表于 2020-3-16 10:48:23 | 显示全部楼层 |阅读模式
导演: 李志伦
编剧: 徐明華 / 積奇兄弟 / 林小敷
主演: 谭耀文 / 梁琤 / 杨恭如 / 袁文杰 / 何佩瑜 / 林明祯 / 唐文龙 / 邓洢玲 / 吕珊 / 陆诗韵 / 赵善恒 / 杨潮凯 / 钟浩贤 / 吴云甫 / 谢可逸 / 张文杰 / 小肥 / 陈慧敏 / 李英涛 / 徐佳琦 / 霍俊邦 / 袁绮雯 / 林慧倩 / 苏浩才
类型: 剧情 / 喜剧 / 动作
制片国家/地区: 中国香港
语言: 粤语 / 汉语普通话
上映日期: 2019-09-26(中国香港)
片长: 91分钟
又名: The Fatal Raid / Special Female Force II / 辣警霸王花2不义之战
IMDb链接: tt10619512

不义之战的剧情简介 · · · · · ·
  香港,警探谭家明(谭耀文 饰)因多年前与挚友同伴唐警探(唐文龙 饰演)兄弟反目,其妻子阿雪(杨恭如 饰)又病重,他失意潦倒之际,一日遇上城中雷厉风行的辣警霸王花Madam梁(梁琤 饰)和她手下的女子兵团,是敌是友,火拼再起......

Video
ID : 1
Format : AVC
Format/Info : Advanced Video Codec
Format profile : High@L4.1
Format settings : CABAC / 5 Ref Frames
Format settings, CABAC : Yes
Format settings, Reference frames : 5 frames
Codec ID : V_MPEG4/ISO/AVC
Duration : 1 h 31 min
Bit rate : 12.3 Mb/s
Width : 1 920 pixels
Height : 806 pixels
Display aspect ratio : 2.40:1
Frame rate mode : Constant
Frame rate : 24.000 FPS
Color space : YUV
Chroma subsampling : 4:2:0
Bit depth : 8 bits
Scan type : Progressive
Bits/(Pixel*Frame) : 0.332
Stream size : 7.83 GiB (95%)
Writing library : x264 core 129 r2245+704+36 8e61944 tMod+MixAQ [8-bit@4:2:0 X86_64]
Encoding settings : cabac=1 / ref=5 / deblock=1:-3:-3 / analyse=0x3:0x133 / me=umh / subme=8 / psy=1 / fade_compensate=0.00 / psy_rd=1.05:0.10 / mixed_ref=1 / me_range=64 / chroma_me=1 / trellis=1 / 8x8dct=1 / cqm=0 / deadzone=21,11 / fast_pskip=1 / chroma_qp_offset=-3 / threads=12 / lookahead_threads=2 / sliced_threads=0 / nr=0 / decimate=0 / interlaced=0 / bluray_compat=0 / constrained_intra=0 / fgo=0 / bframes=8 / b_pyramid=2 / b_adapt=2 / b_bias=0 / direct=3 / weightb=1 / open_gop=0 / weightp=2 / keyint=250 / keyint_min=24 / scenecut=40 / intra_refresh=0 / rc=2pass / mbtree=0 / bitrate=12326 / ratetol=1.0 / qcomp=0.70 / qpmin=0 / qpmax=69 / qpstep=4 / cplxblur=20.0 / qblur=0.5 / ip_ratio=1.40 / pb_ratio=1.30 / aq=1 / aq-strength=0.85 / aq-sensitivity=10.00 / aq-ifactor=1.00 / aq-pfactor=1.00 / aq-bfactor=1.00 / aq2=0
Language : Chinese
Default : Yes
Forced : No

Audio
ID : 2
Format : AC-3
Format/Info : Audio Coding 3
Commercial name : Dolby Digital
Codec ID : A_AC3
Duration : 1 h 31 min
Bit rate mode : Constant
Bit rate : 640 kb/s
Channel(s) : 6 channels
Channel layout : L R C LFE Ls Rs
Sampling rate : 48.0 kHz
Frame rate : 31.250 FPS (1536 SPF)
Bit depth : 16 bits
Compression mode : Lossy
Stream size : 417 MiB (5%)
Language : Chinese
Service kind : Complete Main
Default : Yes
Forced : No

Text #1
ID : 3
Format : UTF-8
Codec ID : S_TEXT/UTF8
Codec ID/Info : UTF-8 Plain Text
Duration : 1 h 26 min
Bit rate : 37 b/s
Count of elements : 703
Stream size : 23.5 KiB (0%)
Language : English
Default : Yes
Forced : No

Text #2
ID : 4
Format : UTF-8
Codec ID : S_TEXT/UTF8
Codec ID/Info : UTF-8 Plain Text
Duration : 1 h 26 min
Bit rate : 29 b/s
Count of elements : 725
Stream size : 18.4 KiB (0%)
Title : CHS
Language : Chinese
Default : No
Forced : No

Text #3
ID : 5
Format : UTF-8
Codec ID : S_TEXT/UTF8
Codec ID/Info : UTF-8 Plain Text
Duration : 1 h 26 min
Bit rate : 29 b/s
Count of elements : 725
Stream size : 18.4 KiB (0%)
Title : CHT
Language : Chinese
Default : No
Forced : No

Menu
00:00:00.000 : en:第 01 章
00:07:10.833 : en:第 02 章
00:14:52.291 : en:第 03 章
00:24:00.250 : en:第 04 章
00:29:17.541 : en:第 05 章
00:37:38.541 : en:第 06 章
00:44:03.166 : en:第 07 章
00:53:44.291 : en:第 08 章
01:01:15.583 : en:第 09 章
01:10:00.833 : en:第 10 章
01:15:13.541 : en:第 11 章
01:27:07.416 : en:第 12 章

磁力链接:
magnet:?xt=urn:btih:fa936d2c585834a2f2a62c53c7224d7909f47681&dn=The.Fatal.Raid.2019.CHINESE.1080p.BluRay.x264-WiKi&tr=http%3A%2F%2Ftracker.trackerfix.com%3A80%2Fannounce&tr=udp%3A%2F%2F9.rarbg.me%3A2950&tr=udp%3A%2F%2F9.rarbg.to%3A2800

本帖子中包含更多资源

您需要 登录 才可以下载或查看,没有帐号?立即注册

x

2

主题

3万

帖子

4万

积分

升龙霸·VIP

Rank: 22Rank: 22Rank: 22Rank: 22

积分
43680

龙网爱心勋章龙网VIP·银牌

发表于 2020-3-16 23:11:59 | 显示全部楼层
谢谢楼主发片

1

主题

1162

帖子

1504

积分

神龙

Rank: 15Rank: 15Rank: 15

积分
1504
发表于 2020-3-19 09:52:25 | 显示全部楼层
感谢楼主 分享经典影片

21

主题

1万

帖子

1万

积分

神界龙王

Rank: 30Rank: 30Rank: 30Rank: 30

积分
14159
发表于 2020-3-19 11:55:06 | 显示全部楼层
谢谢楼主分享精彩影片,辛苦了
您需要登录后才可以回帖 登录 | 立即注册

本版积分规则

小黑屋|梦幻天堂·龙网

GMT+8, 2020-4-2 14:05 , Processed in 0.120822 second(s), 21 queries , Gzip On.

Powered by Discuz! X3.2

© 2001-2013 Comsenz Inc.

快速回复 返回顶部 返回列表